coor
一代宗师

[更 早] [欧美] [剧情] [WEB-1080P] 警网重重/挥命今宵 Crime.Wave.1953.1080p.AMZN.WEBRip.DDP2.0.x264-SbR 7.16GB

-->

帖子完整标题:警网重重/挥命今宵 Crime.Wave.1953.1080p.AMZN.WEBRip.DDP2.0.x264-SbR 7.16GB




◎译  名 警网重重 / 挥命今宵
◎片  名 Crime Wave
◎年  代 1954
◎产  地 美国
◎类  别 剧情 / 犯罪 / 黑色电影
◎语  言 英语
◎上映日期 1954-02-06
◎IMDb评分 7.3/10 from 2917 users
◎IMDb链接 https://www.imdb.com/title/tt0046878
◎豆瓣评分 7.3/10 from 393 users
◎豆瓣链接 https://movie.douban.com/subject/1304487/
◎片  长 73 分钟
◎导  演 安德尔·迪·托斯 André De Toth
◎编  剧 Bernard Gordon / 克兰·威尔伯 Crane Wilbur / John Hawkins
◎主  演 Sterling Hayden
      Gene Nelson
      Phyllis Kirk


◎标  签 美国 | 黑色电影 | Film-Noir | 犯罪 | 美国电影 | 1950s | 黑色 | 黑白

◎简  介

  暂无相关剧情介绍
Video
ID : 1
Format : AVC
Format/Info : Advanced Video Codec
Format profile : [email protected]
Format settings : CABAC / 4 Ref Frames
Format settings, CABAC : Yes
Format settings, Reference frames : 4 frames
Codec ID : V_MPEG4/ISO/AVC
Duration : 1 h 13 min
Bit rate mode : Variable
Bit rate : 13.7 Mb/s
Maximum bit rate : 15.0 Mb/s
Width : 1 440 pixels
Height : 1 080 pixels
Display aspect ratio : 4:3
Frame rate mode : Constant
Frame rate : 23.976 (24000/1001) FPS
Color space : YUV
Chroma subsampling : 4:2:0
Bit depth : 8 bits
Scan type : Progressive
Bits/(Pixel*Frame) : 0.367
Stream size : 7.05 GiB (98%)
Language : English
Default : Yes
Forced : No
Color range : Limited
Color primaries : BT.709
Transfer characteristics : BT.709
Matrix coefficients : BT.709

Audio
ID : 2
Format : E-AC-3
Format/Info : Enhanced AC-3
Commercial name : Dolby Digital Plus
Codec ID : A_EAC3
Duration : 1 h 13 min
Bit rate mode : Constant
Bit rate : 224 kb/s
Channel(s) : 2 channels
Channel layout : L R
Sampling rate : 48.0 kHz
Frame rate : 31.250 FPS (1536 SPF)
Compression mode : Lossy
Stream size : 118 MiB (2%)
Language : English
Service kind : Complete Main
Default : Yes
Forced : No

Text #1
ID : 3
Format : UTF-8
Codec ID : S_TEXT/UTF8
Codec ID/Info : UTF-8 Plain Text
Duration : 1 h 11 min
Bit rate : 67 b/s
Count of elements : 919
Stream size : 35.3 KiB (0%)
Language : English
Default : No
Forced : No

Text #2
ID : 4
Format : UTF-8
Codec ID : S_TEXT/UTF8
Codec ID/Info : UTF-8 Plain Text
Duration : 1 h 13 min
Bit rate : 67 b/s
Count of elements : 963
Stream size : 36.3 KiB (0%)
Title : SDH
Language : English
Default : No
Forced : No

Menu
00:00:00.000 : en:Chapter 1
00:08:00.971 : en:Chapter 2
00:16:52.336 : en:Chapter 3
00:27:53.163 : en:Chapter 4
00:37:47.558 : en:Chapter 5
00:45:31.856 : en:Chapter 6
00:55:06.264 : en:Chapter 7
01:05:27.719 : en:Chapter 8





1 个附件 售价 大小 下载 时间

Crime.Wave.1953.1080p.AMZN.WEBRip.DDP2.0.x264-SbR.torrent 0 金币 36.34K 91 次 6天前

#1楼
发帖时间:2020-02-14 15:52:17   |   回复数:1
911degrees
隐世仙人♂
非常感谢,谢谢分享
6天前 #2楼
游客组