coor
一代宗师

[更 早] [欧美] [剧情] [WEB-1080P] 天伦劫/枭城喋血 The.Brotherhood.1968.1080p.AMZN.WEBRip.DDP2.0.x264-SbR 9.06GB

-->

帖子完整标题:天伦劫/枭城喋血 The.Brotherhood.1968.1080p.AMZN.WEBRip.DDP2.0.x264-SbR 9.06GB




◎译  名 天伦劫 / 枭城喋血
◎片  名 The Brotherhood
◎年  代 1968
◎产  地 美国
◎类  别 剧情 / 犯罪
◎语  言 英语 / 意大利语
◎上映日期 1969-01-31
◎IMDb评分 6.1/10 from 727 users
◎IMDb链接 https://www.imdb.com/title/tt0062760
◎豆瓣评分 0/10 from 0 users
◎豆瓣链接 https://movie.douban.com/subject/1299682/
◎片  长 96 分钟
◎导  演 马丁·里特 Martin Ritt
◎编  剧 刘易斯-约翰·卡利诺 Lewis John Carlino
◎主  演 柯克·道格拉斯 Kirk Douglas
      阿历克斯·考德 Alex Cord
      艾琳·帕帕斯 Irene Papas
      卢瑟·艾德勒 Luther Adler
      苏珊·斯塔丝伯格 Susan Strasberg


◎标  签 美国 | 1960s | 犯罪 | 剧情 | MartinRitt | 1968 | KirkDouglas | M美国

◎简  介

  一个强大的黑手党唐的儿子回家从他在越南服役,并希望带领自己的生命,但家族的传统,尔虞我诈,涉及他的哥哥powerplays另有要求,而且他发现自己正在慢慢地拉回到那个世界。
Video
ID : 1
Format : AVC
Format/Info : Advanced Video Codec
Format profile : [email protected]
Format settings : CABAC / 4 Ref Frames
Format settings, CABAC : Yes
Format settings, Reference frames : 4 frames
Codec ID : V_MPEG4/ISO/AVC
Duration : 1 h 36 min
Bit rate mode : Variable
Bit rate : 13.3 Mb/s
Maximum bit rate : 15.0 Mb/s
Width : 1 920 pixels
Height : 1 080 pixels
Display aspect ratio : 16:9
Frame rate mode : Constant
Frame rate : 23.976 (24000/1001) FPS
Color space : YUV
Chroma subsampling : 4:2:0
Bit depth : 8 bits
Scan type : Progressive
Bits/(Pixel*Frame) : 0.267
Stream size : 8.91 GiB (98%)
Writing library : x264 core 148 r2623 d5b2374
Encoding settings : cabac=1 / ref=4 / deblock=1:-1:-1 / analyse=0x3:0x133 / me=umh / subme=9 / psy=1 / psy_rd=1.00:0.15 / mixed_ref=1 / me_range=24 / chroma_me=1 / trellis=2 / 8x8dct=1 / cqm=0 / deadzone=21,11 / fast_pskip=1 / chroma_qp_offset=-3 / threads=34 / lookahead_threads=5 / sliced_threads=0 / nr=150 / decimate=1 / interlaced=0 / bluray_compat=0 / constrained_intra=0 / bframes=8 / b_pyramid=2 / b_adapt=2 / b_bias=0 / direct=3 / weightb=1 / open_gop=0 / weightp=2 / keyint=120 / keyint_min=61 / scenecut=0 / intra_refresh=0 / rc_lookahead=120 / rc=crf / mbtree=1 / crf=18.0 / qcomp=0.60 / qpmin=0 / qpmax=69 / qpstep=4 / vbv_maxrate=15000 / vbv_bufsize=31250 / crf_max=0.0 / nal_hrd=vbr / filler=0 / ip_ratio=1.40 / aq=3:1.00
Language : English
Default : Yes
Forced : No
Color range : Limited
Color primaries : BT.709
Transfer characteristics : BT.709
Matrix coefficients : BT.709

Audio
ID : 2
Format : E-AC-3
Format/Info : Enhanced AC-3
Commercial name : Dolby Digital Plus
Codec ID : A_EAC3
Duration : 1 h 36 min
Bit rate mode : Constant
Bit rate : 224 kb/s
Channel(s) : 2 channels
Channel layout : L R
Sampling rate : 48.0 kHz
Frame rate : 31.250 FPS (1536 SPF)
Compression mode : Lossy
Stream size : 154 MiB (2%)
Language : English
Service kind : Complete Main
Default : Yes
Forced : No

Text #1
ID : 3
Format : UTF-8
Codec ID : S_TEXT/UTF8
Codec ID/Info : UTF-8 Plain Text
Duration : 1 h 34 min
Bit rate : 53 b/s
Count of elements : 976
Stream size : 36.8 KiB (0%)
Language : English
Default : No
Forced : No

Text #2
ID : 4
Format : UTF-8
Codec ID : S_TEXT/UTF8
Codec ID/Info : UTF-8 Plain Text
Duration : 1 h 34 min
Bit rate : 62 b/s
Count of elements : 1586
Stream size : 43.7 KiB (0%)
Title : SDH
Language : English
Default : No
Forced : No

Menu
00:00:00.000 : en:01. Ready to Fight
00:07:17.325 : en:02. Family Reunion
00:12:24.992 : en:03. Wedding Dance
00:20:45.825 : en:04. Ginetta Brothers
00:25:22.158 : en:05. The Board
00:31:06.491 : en:06. A Warning
00:36:25.158 : en:07. Moving Ahead
00:42:09.858 : en:08. Husband and Wife
00:47:12.325 : en:09. Betrayed by Dominick Bertolo
00:55:10.825 : en:10. Photographs of Vince
01:01:15.125 : en:11. Sell Out
01:07:30.925 : en:12. Standing Alone
01:14:01.959 : en:13. The Setup
01:22:20.258 : en:14. Revenge
01:27:03.258 : en:15. Italian Vacation
01:30:47.624 : en:16. Taking Care of Business





1 个附件 售价 大小 下载 时间

The.Brotherhood.1968.1080p.AMZN.WEBRip.DDP2.0.x264-SbR.torrent 0 金币 45.82K 112 次 6天前

#1楼
发帖时间:2020-02-14 15:54:18   |   回复数:1
911degrees
隐世仙人♂
非常感谢,谢谢分享
6天前 #2楼
游客组