coor
一代宗师

[更 早] [其他] [剧情] [WEB-1080P] 机器管家/二百年人 Bicentennial.Man.1999.1080p.WEBRip.x264-RARBG 2.50GB

-->

帖子完整标题:机器管家/二百年人 Bicentennial.Man.1999.1080p.WEBRip.x264-RARBG 2.50GB




◎译  名 机器管家 / 二百年人 / 伙伴 / 变人 / 跨世纪机器人 / 铁人浮生记 / 铁甲再生人(港)
◎片  名 Bicentennial Man
◎年  代 1999
◎产  地 美国 / 德国
◎类  别 剧情 / 喜剧 / 科幻
◎语  言 英语
◎上映日期 1999-12-13(美国)
◎IMDb评分 6.9/10 from 105429 users
◎IMDb链接 https://www.imdb.com/title/tt0182789
◎豆瓣评分 8.5/10 from 68775 users
◎豆瓣链接 https://movie.douban.com/subject/1292529/
◎片  长 132分钟
◎导  演 克里斯·哥伦布 Chris Columbus
◎编  剧 尼古拉斯·卡赞 Nicholas Kazan / 艾萨克·阿西莫夫 Isaac Asimov / 罗伯特·西尔弗伯格 Robert Silverberg
◎主  演 罗宾·威廉姆斯 Robin Williams
      艾伯丝·戴维兹 Embeth Davidtz
      山姆·尼尔 Sam Neill
      奥利弗·普莱特 Oliver Platt
      绮尔斯腾·瓦伦 Kiersten Warren
      温迪·古逊 Wendy Crewson
      海莉·凯特·爱森伯格 Hallie Kate Eisenberg
      林兹·利瑟曼 Lindze Letherman
      安吉拉·兰迪斯 Angela Landis
      约翰·迈克尔·辛吉斯 John Michael Higgins
      布莱德利·惠特福德 Bradley Whitford
      伊戈尔·希勒 Igor Hiller
      乔·贝兰 Joe Bellan
      布雷特·瓦格纳 Brett Wagner
      斯蒂芬·鲁特 Stephen Root
      斯科特·沃 Scott Waugh
      奎因·史密斯 Quinn Smith
      克里斯蒂·科内利 Kristy Connelly
      杰·约翰斯顿 Jay Johnston
      乔治·华莱士 George Wallace
      林恩·瑟格本 Lynne Thigpen
      普雷斯·格里芬 Ples Griffin
      玛西娅·皮佐 Marcia Pizzo
      宝拉·迪普雷·佩斯门 Paula DuPré Pesmen
      克拉克·德弗洛 Clarke Devereux


◎标  签 科幻 | 美国 | 爱情 | 机器人 | 经典 | RobinWilliams | 美国电影 | 剧情

◎简  介

  机器人安德鲁(罗宾·威廉斯 Robin Williams 饰)是尼尔家四代人的管家。原本尼尔一家只是当他一部机器来使用,但大家渐渐发现安德鲁不只是一个家务机器这么简单,他在日常还会和他们一起欢笑,懂得人类的习俗,体会人类的情感。
  安德鲁在尼尔家的女儿很小的时候就喜欢上她了,但由于他没有安装感觉模块,他任由她嫁给了一个错误的人。由于没有感觉,安德鲁可以在海边独自一人盖一栋房子生活。直到某天,他遇上了机械专家、科学狂人,为他安装上了感觉模块。
  至此,安德鲁才体会到什么是吃醋、什么是恋爱。经过一番努力,安德鲁终于完全融入了人类社会。最终,他和自己相爱的人得以长厢厮守,并在垂垂老矣时幸福死去……

◎获奖情况

  第72届奥斯卡金像奖(2000)
  最佳化妆(提名) 格雷格·卡农
Video
ID : 1
Format : AVC
Format/Info : Advanced Video Codec
Format profile : [email protected]
Format settings : CABAC / 4 Ref Frames
Format settings, CABAC : Yes
Format settings, Reference frames : 4 frames
Codec ID : avc1
Codec ID/Info : Advanced Video Coding
Duration : 2 h 11 min
Bit rate : 2 500 kb/s
Width : 1 920 pixels
Height : 1 040 pixels
Display aspect ratio : 1.85:1
Frame rate mode : Constant
Frame rate : 23.976 (23976/1000) FPS
Color space : YUV
Chroma subsampling : 4:2:0
Bit depth : 8 bits
Scan type : Progressive
Bits/(Pixel*Frame) : 0.052
Stream size : 2.29 GiB (92%)
Writing library : x264 core 152 r2851M ba24899
Encoding settings : cabac=1 / ref=4 / deblock=1:-1:-1 / analyse=0x3:0x113 / me=umh / subme=9 / psy=1 / psy_rd=1.00:0.15 / mixed_ref=1 / me_range=24 / chroma_me=1 / trellis=2 / 8x8dct=1 / cqm=0 / deadzone=21,11 / fast_pskip=1 / chroma_qp_offset=-3 / threads=16 / lookahead_threads=4 / sliced_threads=0 / nr=0 / decimate=1 / interlaced=0 / bluray_compat=0 / constrained_intra=0 / bframes=3 / b_pyramid=2 / b_adapt=2 / b_bias=0 / direct=3 / weightb=1 / open_gop=0 / weightp=2 / keyint=250 / keyint_min=25 / scenecut=40 / intra_refresh=0 / rc_lookahead=50 / rc=2pass / mbtree=1 / bitrate=2500 / ratetol=1.0 / qcomp=0.60 / qpmin=0 / qpmax=69 / qpstep=4 / cplxblur=20.0 / qblur=0.5 / vbv_maxrate=31250 / vbv_bufsize=31250 / nal_hrd=none / filler=0 / ip_ratio=1.40 / aq=3:1.00
Encoded date : UTC 2020-02-11 21:41:50
Tagged date : UTC 2020-02-11 21:41:50
Codec configuration box : avcC

Audio
ID : 2
Format : AAC LC
Format/Info : Advanced Audio Codec Low Complexity
Codec ID : mp4a-40-2
Duration : 2 h 11 min
Duration_LastFrame : -11 ms
Bit rate mode : Constant
Bit rate : 224 kb/s
Channel(s) : 6 channels
Channel layout : C L R Ls Rs LFE
Sampling rate : 48.0 kHz
Frame rate : 46.875 FPS (1024 SPF)
Compression mode : Lossy
Stream size : 211 MiB (8%)
Default : Yes
Alternate group : 1
Encoded date : UTC 2020-02-11 21:41:50
Tagged date : UTC 2020-02-11 21:41:50





1 个附件 售价 大小 下载 时间

Bicentennial.Man.1999.1080p.WEBRip.x264-RARBG.torrent 0 金币 25.65K 448 次 7月前

#1楼
发帖时间:2020-02-14 16:12:51   |   回复数:1
911degrees
隐世仙人♂
非常感谢,谢谢分享
7月前 #2楼
游客组