coor
一代宗师

[2019] [其他] [科幻] [BD-1080P] 星之彩/异星之彩 Color.Out.of.Space.2019.1080p.BluRay.x264-GECKOS 7.95GB

-->

帖子完整标题:星之彩/异星之彩 Color.Out.of.Space.2019.1080p.BluRay.x264-GECKOS 7.95GB




◎译  名 星之彩 / 异星之彩 / 时空之外的颜色 / 流星溢彩
◎片  名 Color Out of Space
◎年  代 2019
◎产  地 葡萄牙 / 美国 / 马来西亚
◎类  别 科幻 / 恐怖
◎语  言 英语
◎上映日期 2019-09-07(多伦多国际电影节) / 2020-01-24(美国)
◎IMDb评分 6.3/10 from 5169 users
◎IMDb链接 https://www.imdb.com/title/tt5073642
◎豆瓣评分 6.4/10 from 1881 users
◎豆瓣链接 https://movie.douban.com/subject/30307197/
◎片  长 111分钟
◎导  演 理查德·斯坦利 Richard Stanley
◎编  剧 理查德·斯坦利 Richard Stanley / H·P·洛夫克拉夫特 H.P. Lovecraft / Scarlett Amaris
◎主  演 尼古拉斯·凯奇 Nicolas Cage
      玛德琳娜·亚瑟 Madeleine Arthur
      艾略特·奈特 Elliot Knight
      乔莉·理查德森 Joely Richardson
      布雷丹·梅耶尔 Brendan Meyer
      汤米·钟 Tommy Chong
      考莉安卡·基尔彻 Q'orianka Kilcher
      朱利安·希威德 Julian Hilliard
      Brett W. Bachman
      Melissa Nearman


◎标  签 科幻 | 恐怖 | 克苏鲁 | H.P.洛夫克拉夫特 | 尼古拉斯凯奇 | 美国 | 超自然 | 美国电影

◎简  介

  一颗流光溢彩的太空陨石径直坠入新英格兰偏远庄园后,邪恶势力开始暗暗渗透静居于此的加德纳一家。不知不觉中,时间开始膨胀,自然逐渐呈现超凡脱俗的异世色调,而所有鲜亮美丽之物则受其影响纷纷异变腐败。
  本片由南非影人理查德·斯坦利执导,与斯嘉丽·阿马里斯合作改编自H·P·洛夫克拉夫特1927年同名短篇小说《异星之彩/流星溢彩(The Colour Out of Space)》,并由奥斯卡影帝尼古拉斯·凯奇领衔主演。
Video
ID : 1
Format : AVC
Format/Info : Advanced Video Codec
Format profile : [email protected]
Format settings : CABAC / 5 Ref Frames
Format settings, CABAC : Yes
Format settings, Reference frames : 5 frames
Codec ID : V_MPEG4/ISO/AVC
Duration : 1 h 50 min
Bit rate : 8 829 kb/s
Width : 1 920 pixels
Height : 808 pixels
Display aspect ratio : 2.40:1
Frame rate mode : Constant
Frame rate : 24.000 FPS
Color space : YUV
Chroma subsampling : 4:2:0
Bit depth : 8 bits
Scan type : Progressive
Bits/(Pixel*Frame) : 0.237
Stream size : 6.78 GiB (85%)
Writing library : x264 core 159 r2991 1771b55
Encoding settings : cabac=1 / ref=5 / deblock=1:-3:-3 / analyse=0x3:0x113 / me=umh / subme=8 / psy=1 / psy_rd=1.00:0.00 / mixed_ref=1 / me_range=16 / chroma_me=1 / trellis=1 / 8x8dct=1 / cqm=0 / deadzone=21,11 / fast_pskip=1 / chroma_qp_offset=-2 / threads=25 / lookahead_threads=4 / sliced_threads=0 / nr=0 / decimate=1 / interlaced=0 / bluray_compat=0 / constrained_intra=0 / bframes=3 / b_pyramid=2 / b_adapt=1 / b_bias=0 / direct=3 / weightb=1 / open_gop=0 / weightp=2 / keyint=250 / keyint_min=24 / scenecut=40 / intra_refresh=0 / rc_lookahead=50 / rc=2pass / mbtree=1 / bitrate=8829 / ratetol=1.0 / qcomp=0.60 / qpmin=0 / qpmax=69 / qpstep=4 / cplxblur=20.0 / qblur=0.5 / ip_ratio=1.40 / aq=1:1.00
Language : English
Default : Yes
Forced : No

Audio
ID : 2
Format : DTS
Format/Info : Digital Theater Systems
Codec ID : A_DTS
Duration : 1 h 50 min
Bit rate mode : Constant
Bit rate : 1 509 kb/s
Channel(s) : 6 channels
Channel layout : C L R Ls Rs LFE
Sampling rate : 48.0 kHz
Frame rate : 93.750 FPS (512 SPF)
Bit depth : 24 bits
Compression mode : Lossy
Stream size : 1.16 GiB (15%)
Language : English
Default : Yes
Forced : No

Menu
00:00:00.000 : en:00:00:00.000
00:15:37.583 : en:00:15:37.583
00:30:00.625 : en:00:30:00.625
00:43:27.833 : en:00:43:27.833
01:00:20.000 : en:01:00:20.000
01:10:45.792 : en:01:10:45.792
01:28:25.542 : en:01:28:25.542
01:46:22.417 : en:01:46:22.417





1 个附件 售价 大小 下载 时间

Color.Out.of.Space.2019.1080p.BluRay.x264-GECKOS.torrent 0 金币 40.65K 1512 次 5月前

#1楼
发帖时间:2020-02-14 16:22:29   |   回复数:2
911degrees
隐世仙人♂
非常感谢,谢谢分享
5月前 #2楼
liyouchai
隐世仙人♂
谢谢楼主分享资源
5月前 #3楼
游客组