coor
一代宗师

[更 早] [其他] [剧情] [BD-1080P] 大鬧廣昌隆 Finale.In.Blood.1993.CHINESE.1080p.BluRay.x264.DTS-FGT 8.61GB

-->

帖子完整标题:大鬧廣昌隆 Finale.In.Blood.1993.CHINESE.1080p.BluRay.x264.DTS-FGT 8.61GB




◎译  名 大闹广昌隆 / Finale in Blood
◎片  名 大鬧廣昌隆
◎年  代 1993
◎产  地 中国香港
◎类  别 剧情 / 爱情 / 恐怖
◎语  言 粤语
◎上映日期 1993-11-06(中国香港)
◎IMDb评分 5.6/10 from 74 users
◎IMDb链接 https://www.imdb.com/title/tt0101644
◎豆瓣评分 6.8/10 from 2326 users
◎豆瓣链接 https://movie.douban.com/subject/1305059/
◎片  长 94 分钟
◎导  演 陈果 Fruit Chan
◎编  剧 陈庆嘉 Hing-Ka Chan / 张小娴 Siu-Han Cheung
◎主  演 郑丹瑞 Lawrence Cheng
      吴大维 David Ng
      陶君薇 Ruth Winona Tao
      青山知可子 Chikako Aoyama


◎标  签 陈果 | 香港 | 香港电影 | 爱情 | 吴大维 | 郑丹瑞 | 1993 | 恐怖

◎简  介

  郑明宝(郑丹瑞 饰)是香港某电台播报猪肉价格的DJ,他的朋友陈七本想托他走私药品,没想到郑明宝把事情搞砸,害得他锒铛入狱。郑明宝无意中得到了一把雨伞,并由此结识了冥间女鬼方茵(陶君薇 饰),为此,郑明宝专门做了一档晚间鬼故事的节目,由方茵现身说法,收听率居高不下,连当红DJ蕾莎(顾美华 饰)也对他另眼相看,暗送秋波。
  节目中,方茵讲述了自己的一段被负心汉欺骗、惨遭情敌迫害致死的过程。原来,她本是从南洋来香港接管广昌隆饭店的女继承人,偶然见邂逅了警察马光燊(吴大维 饰),并堕入爱河。但是,马光燊其实是个花花公子,几次三番伤害了方茵纯洁的感情。特别是当他的情妇(青山知可子 饰)登堂入室后,更是把伤心欲绝的方茵逼上了绝路……

◎获奖情况

  第13届香港电影金像奖(1994)
  最佳摄影(提名) 钟志文 / 敖志君
Video
ID : 1
Format : AVC
Format/Info : Advanced Video Codec
Format profile : [email protected]
Format settings : CABAC / 4 Ref Frames
Format settings, CABAC : Yes
Format settings, Reference frames : 4 frames
Codec ID : V_MPEG4/ISO/AVC
Duration : 1 h 34 min
Bit rate : 11.5 Mb/s
Width : 1 920 pixels
Height : 1 024 pixels
Display aspect ratio : 1.85:1
Frame rate mode : Constant
Frame rate : 24.000 FPS
Color space : YUV
Chroma subsampling : 4:2:0
Bit depth : 8 bits
Scan type : Progressive
Bits/(Pixel*Frame) : 0.244
Stream size : 7.61 GiB (88%)
Writing library : x264 core 148 r2795M aaa9aa8
Encoding settings : cabac=1 / ref=4 / deblock=1:-2:-2 / analyse=0x3:0x113 / me=umh / subme=9 / psy=1 / psy_rd=1.00:0.15 / mixed_ref=1 / me_range=16 / chroma_me=1 / trellis=2 / 8x8dct=1 / cqm=0 / deadzone=21,11 / fast_pskip=1 / chroma_qp_offset=-3 / threads=24 / lookahead_threads=3 / sliced_threads=0 / nr=0 / decimate=1 / interlaced=0 / bluray_compat=0 / constrained_intra=0 / bframes=3 / b_pyramid=2 / b_adapt=1 / b_bias=0 / direct=3 / weightb=1 / open_gop=0 / weightp=2 / keyint=250 / keyint_min=25 / scenecut=40 / intra_refresh=0 / rc_lookahead=50 / rc=2pass / mbtree=1 / bitrate=11500 / ratetol=1.0 / qcomp=0.60 / qpmin=0 / qpmax=69 / qpstep=4 / cplxblur=20.0 / qblur=0.5 / vbv_maxrate=31250 / vbv_bufsize=31250 / nal_hrd=none / filler=0 / ip_ratio=1.40 / aq=1:1.00
Language : Chinese
Default : Yes
Forced : No

Audio
ID : 2
Format : DTS
Format/Info : Digital Theater Systems
Codec ID : A_DTS
Duration : 1 h 34 min
Bit rate mode : Constant
Bit rate : 1 509 kb/s
Channel(s) : 6 channels
Channel layout : C L R Ls Rs LFE
Sampling rate : 48.0 kHz
Frame rate : 93.750 FPS (512 SPF)
Bit depth : 16 bits
Compression mode : Lossy
Stream size : 1 023 MiB (12%)
Language : Chinese
Default : Yes
Forced : No

Text
ID : 3
Format : UTF-8
Codec ID : S_TEXT/UTF8
Codec ID/Info : UTF-8 Plain Text
Duration : 1 h 30 min
Bit rate : 40 b/s
Count of elements : 956
Stream size : 26.8 KiB (0%)
Language : English
Default : Yes
Forced : No





1 个附件 售价 大小 下载 时间

Finale.In.Blood.1993.CHINESE.1080p.BluRay.x264.DTS-FGT.torrent 0 金币 43.59K 1197 次 7月前

#1楼
发帖时间:2020-02-14 16:41:09   |   回复数:3
911degrees
隐世仙人♂
非常感谢,谢谢分享
7月前 #2楼
jokingcheung
一代宗师
谢谢分享
7月前 #3楼
liyouchai
隐世仙人♂
谢谢楼主分享资源
7月前 #4楼
游客组