coor
一代宗师

[2015] [其他] [剧情] [BD-1080P] 不要为恶 Dont.Be.Bad.2015.ITALIAN.1080p.BluRay.x264.DTS-FGT 9.30GB

-->

帖子完整标题:不要为恶 Dont.Be.Bad.2015.ITALIAN.1080p.BluRay.x264.DTS-FGT 9.30GB




◎译  名 不要为恶 / Anni rapaci / Don't Be Bad
◎片  名 Non essere cattivo
◎年  代 2015
◎产  地 意大利
◎类  别 剧情 / 犯罪
◎语  言 意大利语
◎上映日期 2015-09-08(意大利)
◎IMDb评分 7.2/10 from 3129 users
◎IMDb链接 https://www.imdb.com/title/tt1167611
◎豆瓣评分 6.5/10 from 107 users
◎豆瓣链接 https://movie.douban.com/subject/5186994/
◎片  长 100分钟
◎导  演 Claudio Caligari
◎编  剧 Claudio Caligari
◎主  演 卢卡·马里内力 Luca Marinelli
      Alessandro Borghi
      Roberta Mattei


◎标  签 意大利 | 2015 | 犯罪 | 毒品 | 剧情 | 意大利电影 | Claudio_Caligari | 欧洲电影

◎简  介

  这是一个发生于九十年代罗马的奥斯蒂亚镇的故事,彼时享乐主义统治的世界充斥着金钱、豪车、夜总会与合成毒品。二十多岁的童年好友维托里奥和凯撒也正为之而奋斗。但即使是生存,其成本也超过他们的负担。在凯撒不断堕落至无药可救的路上,维托里奥毅然决然地抛弃了他。然而,令他们没有想到的是,两人彼此之间的纽带是那么的紧密,以至于前者其实从未将后者放弃……(小易甫字幕组)
Video
ID : 1
Format : AVC
Format/Info : Advanced Video Codec
Format profile : [email protected]
Format settings : CABAC / 4 Ref Frames
Format settings, CABAC : Yes
Format settings, Reference frames : 4 frames
Codec ID : V_MPEG4/ISO/AVC
Duration : 1 h 42 min
Bit rate : 11.5 Mb/s
Width : 1 920 pixels
Height : 804 pixels
Display aspect ratio : 2.40:1
Frame rate mode : Constant
Frame rate : 24.000 FPS
Color space : YUV
Chroma subsampling : 4:2:0
Bit depth : 8 bits
Scan type : Progressive
Bits/(Pixel*Frame) : 0.310
Stream size : 8.22 GiB (88%)
Title : Dont.Be.Bad.2015.ITALIAN.1080p.BluRay.x264.DTS-FGT
Writing library : x264 core 148 r2795M aaa9aa8
Encoding settings : cabac=1 / ref=4 / deblock=1:-2:-2 / analyse=0x3:0x113 / me=umh / subme=9 / psy=1 / psy_rd=1.00:0.15 / mixed_ref=1 / me_range=16 / chroma_me=1 / trellis=2 / 8x8dct=1 / cqm=0 / deadzone=21,11 / fast_pskip=1 / chroma_qp_offset=-3 / threads=24 / lookahead_threads=3 / sliced_threads=0 / nr=0 / decimate=1 / interlaced=0 / bluray_compat=0 / constrained_intra=0 / bframes=3 / b_pyramid=2 / b_adapt=1 / b_bias=0 / direct=3 / weightb=1 / open_gop=0 / weightp=2 / keyint=250 / keyint_min=25 / scenecut=40 / intra_refresh=0 / rc_lookahead=50 / rc=2pass / mbtree=1 / bitrate=11500 / ratetol=1.0 / qcomp=0.60 / qpmin=0 / qpmax=69 / qpstep=4 / cplxblur=20.0 / qblur=0.5 / vbv_maxrate=31250 / vbv_bufsize=31250 / nal_hrd=none / filler=0 / ip_ratio=1.40 / aq=1:1.00
Language : Italian
Default : Yes
Forced : No

Audio
ID : 2
Format : DTS
Format/Info : Digital Theater Systems
Codec ID : A_DTS
Duration : 1 h 42 min
Bit rate mode : Constant
Bit rate : 1 509 kb/s
Channel(s) : 6 channels
Channel layout : C L R Ls Rs LFE
Sampling rate : 48.0 kHz
Frame rate : 93.750 FPS (512 SPF)
Bit depth : 16 bits
Compression mode : Lossy
Stream size : 1.08 GiB (12%)
Title : Dont.Be.Bad.2015.ITALIAN.1080p.BluRay.x264.DTS-FGT
Language : Italian
Default : Yes
Forced : No

Text
ID : 3
Format : UTF-8
Codec ID : S_TEXT/UTF8
Codec ID/Info : UTF-8 Plain Text
Duration : 1 h 36 min
Bit rate : 39 b/s
Count of elements : 848
Stream size : 28.1 KiB (0%)
Language : English
Default : Yes
Forced : No

Menu
00:00:00.000 : en:Chapter 01
00:09:54.667 : en:Chapter 02
00:20:46.667 : en:Chapter 03
00:28:24.833 : en:Chapter 04
00:34:28.458 : en:Chapter 05
00:42:37.750 : en:Chapter 06
00:50:49.000 : en:Chapter 07
00:59:18.667 : en:Chapter 08
01:04:07.875 : en:Chapter 09
01:09:02.500 : en:Chapter 10
01:14:55.792 : en:Chapter 11
01:20:34.208 : en:Chapter 12
01:26:33.583 : en:Chapter 13
01:31:22.417 : en:Chapter 14
01:38:44.250 : en:Chapter 15





1 个附件 售价 大小 下载 时间

Dont.Be.Bad.2015.ITALIAN.1080p.BluRay.x264.DTS-FGT.torrent 0 金币 47.02K 329 次 5月前

#1楼
发帖时间:2020-02-14 16:42:36   |   回复数:1
911degrees
隐世仙人♂
非常感谢,谢谢分享
5月前 #2楼
游客组