coor
一代宗师

[2016] [其他] [剧情] [WEB-1080P] 夜来了/夜爱夜寂寞 The.Night.2016.SPANISH.ENSUBBED.1080p.AMZN.WEBRip.DD2.0.x264-8CLAW 5.4

-->

帖子完整标题:夜来了/夜爱夜寂寞 The.Night.2016.SPANISH.ENSUBBED.1080p.AMZN.WEBRip.DD2.0.x264-8CLAW 5.44GB




◎译  名 夜来了 / 夜爱夜寂寞(台)
◎片  名 La noche
◎年  代 2016
◎产  地 Argentina
◎类  别 剧情
◎语  言 西班牙语
◎上映日期 2016-04-01(阿根廷)
◎IMDb评分 4.0/10 from 203 users
◎IMDb链接 https://www.imdb.com/title/tt5643398
◎豆瓣评分 0/10 from 0 users
◎豆瓣链接 https://movie.douban.com/subject/27014942/
◎片  长 135分钟
◎导  演 Edgardo Castro
◎编  剧 Edgardo Castro
◎主  演 Edgardo Castro
      Federico Figari
      Paula Ituriza
      Luis Leiva
      Dolores Guadalupe Olivares
      William Prociuk


◎标  签 同性 | 2016 | 阿根廷 | 情色 | 露点 | 剧情 | 电影 | 同色

◎简  介

  一名中年男同志马丁夜夜笙歌放纵人生,喝酒、嗑药、群交样样都来,但他要的其实只是有人陪伴,在一个又一个High到荼靡的夜晚里,他越渴望爱,就越感到寂寞。阿根廷演员艾德加·多卡斯特罗演而优则导,首部作品《夜爱夜寂寞》自编自导自演首度展现精湛编导才华,以深刻震撼的超现实美学,流畅而迷人地带领观众进入主角的生活和内心,随着大胆露骨的性爱和主角麻醉自己的过程,凸显他内心的无尽孤寂。
Video
ID : 1
Format : AVC
Format/Info : Advanced Video Codec
Format profile : [email protected]
Format settings : CABAC / 4 Ref Frames
Format settings, CABAC : Yes
Format settings, Reference frames : 4 frames
Codec ID : V_MPEG4/ISO/AVC
Duration : 2 h 21 min
Bit rate : 5 294 kb/s
Width : 1 920 pixels
Height : 1 080 pixels
Display aspect ratio : 16:9
Frame rate mode : Constant
Frame rate : 24.000 FPS
Color space : YUV
Chroma subsampling : 4:2:0
Bit depth : 8 bits
Scan type : Progressive
Bits/(Pixel*Frame) : 0.106
Stream size : 5.22 GiB (96%)
Default : Yes
Forced : No
Color range : Limited
Color primaries : BT.709
Transfer characteristics : BT.709
Matrix coefficients : BT.709

Audio
ID : 2
Format : E-AC-3
Format/Info : Enhanced AC-3
Commercial name : Dolby Digital Plus
Codec ID : A_EAC3
Duration : 2 h 21 min
Bit rate mode : Constant
Bit rate : 224 kb/s
Channel(s) : 2 channels
Channel layout : L R
Sampling rate : 48.0 kHz
Frame rate : 31.250 FPS (1536 SPF)
Compression mode : Lossy
Stream size : 226 MiB (4%)
Title : Spanish
Language : Spanish
Service kind : Complete Main
Default : Yes
Forced : No





1 个附件 售价 大小 下载 时间

The.Night.2016.SPANISH.ENSUBBED.1080p.AMZN.WEBRip.DD2.0.x264-8CLAW.torrent 0 金币 27.73K 574 次 7月前

#1楼
发帖时间:2020-02-15 00:46:08   |   回复数:2
liyouchai
隐世仙人♂
谢谢楼主分享资源
7月前 #2楼
911degrees
隐世仙人♂
非常感谢,谢谢分享
7月前 #3楼
游客组