coor
一代宗师

[2016] [欧美] [WEB-1080P] 最后的别离/绝地营救 The.Last.Descent.2016.1080p.AMZN.WEBRip.DDP2.0.x264-TOMMY 7.19GB

-->

帖子完整标题:最后的别离/绝地营救 The.Last.Descent.2016.1080p.AMZN.WEBRip.DDP2.0.x264-TOMMY 7.19GB




◎译  名 最后的别离 / 绝地营救
◎片  名 The Last Descent
◎年  代 2016
◎产  地 美国
◎语  言 英语
◎上映日期 2016-09-16(美国)
◎IMDb评分 5.3/10 from 306 users
◎IMDb链接 https://www.imdb.com/title/tt5895892
◎豆瓣评分 0/10 from 0 users
◎豆瓣链接 https://movie.douban.com/subject/30364457/
◎片  长 105分钟
◎导  演 Isaac Halasima
◎主  演 Chadwick Hopson
      Alexis Johnson
      Landon Henneman


◎标  签 美国

◎简  介

  这是一个关于爱情,生活,人际关系的故事。2009年,约翰·琼斯探索了着名的坚果腻子洞的一个未映射部分,接下来发生的事情一直备受讨论和争议。在陷入一个宽18英寸,深150英尺的洞中后,救援人员疯狂英勇地援救他。最终,可以通过它清楚地看到,当你在生死边缘的最重要的事情是什么。
Video
ID : 1
Format : AVC
Format/Info : Advanced Video Codec
Format profile : [email protected]
Format settings : CABAC / 4 Ref Frames
Format settings, CABAC : Yes
Format settings, Reference frames : 4 frames
Format settings, GOP : M=4, N=48
Codec ID : V_MPEG4/ISO/AVC
Duration : 1 h 44 min
Bit rate mode : Constant
Bit rate : 10 000 kb/s
Width : 1 920 pixels
Height : 800 pixels
Display aspect ratio : 2.40:1
Frame rate mode : Constant
Frame rate : 23.976 (24000/1001) FPS
Color space : YUV
Chroma subsampling : 4:2:0
Bit depth : 8 bits
Scan type : Progressive
Bits/(Pixel*Frame) : 0.272
Stream size : 7.00 GiB (97%)
Default : Yes
Forced : No
Color range : Limited
Color primaries : BT.709
Transfer characteristics : BT.709
Matrix coefficients : BT.709

Audio
ID : 2
Format : E-AC-3
Format/Info : Enhanced AC-3
Commercial name : Dolby Digital Plus
Codec ID : A_EAC3
Duration : 1 h 44 min
Bit rate mode : Constant
Bit rate : 256 kb/s
Channel(s) : 6 channels
Channel layout : L R C LFE Ls Rs
Sampling rate : 48.0 kHz
Frame rate : 31.250 FPS (1536 SPF)
Compression mode : Lossy
Stream size : 192 MiB (3%)
Title : English
Language : English
Service kind : Complete Main
Default : Yes
Forced : No

Text
ID : 3
Format : UTF-8
Codec ID : S_TEXT/UTF8
Codec ID/Info : UTF-8 Plain Text
Duration : 1 h 40 min
Bit rate : 66 b/s
Count of elements : 1653
Stream size : 49.0 KiB (0%)
Title : English [SDH]
Language : English
Default : No
Forced : No





1 个附件 售价 大小 下载 时间

The.Last.Descent.2016.1080p.AMZN.WEBRip.DDP2.0.x264-TOMMY.torrent 0 金币 36.51K 210 次 7月前

#1楼
发帖时间:2020-02-15 00:50:08   |   回复数:2
liyouchai
隐世仙人♂
谢谢楼主分享资源
7月前 #2楼
911degrees
隐世仙人♂
非常感谢,谢谢分享
7月前 #3楼
游客组