coor
一代宗师

[2014] [欧美] [剧情] [WEB-1080P] 致命托儿所 Deadly.Daycare.2014.1080p.AMZN.WEBRip.DDP5.1.x264-ABM 4.16GB

-->

帖子完整标题:致命托儿所 Deadly.Daycare.2014.1080p.AMZN.WEBRip.DDP5.1.x264-ABM 4.16GB




◎译  名 致命托儿所
◎片  名 Deadly Daycare
◎年  代 2014
◎产  地 美国
◎类  别 剧情 / 惊悚
◎语  言 英语
◎上映日期 2014-12-28(美国)
◎IMDb评分 4.9/10 from 385 users
◎IMDb链接 https://www.imdb.com/title/tt3455826
◎豆瓣评分 0/10 from 0 users
◎豆瓣链接 https://movie.douban.com/subject/26594714/
◎片  长 122分钟(中国)
◎导  演 迈克尔·费法 Michael Feifer
◎编  剧 迈克尔·费法 Michael Feifer
◎主  演 凯拉·伊薇儿 Kayla Ewell
      克里斯蒂·卡尔森·罗曼诺 Christy Carlson Romano
      拜斯·约翰逊 Bryce Johnson
      Ariella Nurkovic
      Isabella Nurkovic
      David Ulmer
      Tyler Rice
      卡亚·科利 Caia Coley
      Kimberly Arland
      Thomas Bell
      Michelle DeFraites
      罗伯特·吴 Robert Wu
      Ian Stanley
      Brock Burnett
      Kim Estes


◎标  签 美国 | 家庭 | 惊悚 | 内地 | 2019观看 | 韩国 | 范冰冰 | 动作

◎简  介

  在经历了几年的经济困难后,一位年轻的母亲决定回去工作,帮助她的前夫应付日益增长的账单。由于没有人照看他们四岁的女儿,这位母亲决定把她送到当地一家名为“小家伙”的日托中心,这家日托中心的主人是一位看上去很负责任的老妇人。米娅的尴尬行为持续了几周后,瑞秋得出结论,她的女儿可能受到了中心一位日托老师的虐待。
Video
ID : 1
Format : AVC
Format/Info : Advanced Video Codec
Format profile : [email protected]
Format settings : CABAC / 4 Ref Frames
Format settings, CABAC : Yes
Format settings, Reference frames : 4 frames
Codec ID : V_MPEG4/ISO/AVC
Duration : 1 h 23 min
Bit rate : 6 361 kb/s
Width : 1 920 pixels
Height : 1 080 pixels
Display aspect ratio : 16:9
Frame rate mode : Constant
Frame rate : 23.976 (24000/1001) FPS
Color space : YUV
Chroma subsampling : 4:2:0
Bit depth : 8 bits
Scan type : Progressive
Bits/(Pixel*Frame) : 0.128
Stream size : 3.70 GiB (89%)
Language : English
Default : Yes
Forced : No
Color range : Limited
Color primaries : BT.709
Transfer characteristics : BT.709
Matrix coefficients : BT.709

Audio
ID : 2
Format : E-AC-3
Format/Info : Enhanced AC-3
Commercial name : Dolby Digital Plus
Codec ID : A_EAC3
Duration : 1 h 23 min
Bit rate mode : Constant
Bit rate : 640 kb/s
Channel(s) : 6 channels
Channel layout : L R C LFE Ls Rs
Sampling rate : 48.0 kHz
Frame rate : 31.250 FPS (1536 SPF)
Compression mode : Lossy
Stream size : 381 MiB (9%)
Language : English
Service kind : Complete Main
Default : Yes
Forced : No

Text #1
ID : 3
Format : UTF-8
Codec ID : S_TEXT/UTF8
Codec ID/Info : UTF-8 Plain Text
Language : English
Default : No
Forced : No

Text #2
ID : 4
Format : UTF-8
Codec ID : S_TEXT/UTF8
Codec ID/Info : UTF-8 Plain Text
Title : SDH
Language : English
Default : No
Forced : No





16 个附件 售价 大小 下载 时间

Rey.2017.SPANISH.ENSUBBED.1080p.AMZN.WEBRip.DDP2.0.x264-Cinefeel.torrent 0 金币 83.53K 56 次 2天前

Passing.Fancy.2005.1080p.WEBRip.x264-iNTENSO.torrent 0 金币 190.52K 35 次 2天前

Out.of.Iraq.2016.1080p.WEBRip.AAC2.0.x264-RTN.torrent 0 金币 52.17K 35 次 2天前

One.Day.2016.THAI.1080p.NF.WEBRip.DD5.1.x264-AJP69.torrent 0 金币 77.99K 35 次 2天前

On.Again.Off.Again.2016.1080p.AMZN.WEBRip.DDP2.0.x264-QOQ.torrent 0 金币 99.70K 35 次 2天前

Nothing.to.Lose.2018.PORTUGUESE.1080p.NF.WEBRip.DD5.1.x264-CREATiVE.torrent 0 金币 77.94K 35 次 2天前

Mexico.Barbaro.2014.SPANISH.1080p.NF.WEBRip.DDP2.0.x264-QOQ.torrent 0 金币 50.74K 35 次 2天前

Juror.8.2019.KOREAN.1080p.AMZN.WEBRip.DDP2.0.x264-ARiN.torrent 0 金币 37.42K 35 次 2天前

Juror.8.2019.KOREAN.1080p.AMZN.WEBRip.DDP2.0.x264-ARiN.torrent 0 金币 37.42K 35 次 2天前

I.Am.Sun.Mu.2015.KOREAN.1080p.NF.WEBRip.DDP2.0.x264-QOQ.torrent 0 金币 89.41K 35 次 2天前

I.Am.Comic.2010.1080p.WEBRip.DDP2.0.x264-monkee.torrent 0 金币 71.35K 35 次 2天前

Deadly.Daycare.2014.1080p.AMZN.WEBRip.DDP5.1.x264-ABM.torrent 0 金币 83.65K 42 次 2天前

Budapest.2018.1080p.NF.WEBRip.DDP5.1.x264-iKA.torrent 0 金币 45.38K 35 次 2天前

Black.and.White.1999.1080p.WEBRip.DDP5.1.x264-FGT.torrent 0 金币 73.45K 35 次 2天前

Amar.2017.SPANISH.1080p.NF.WEBRip.DD5.1.x264-STRiFE.torrent 0 金币 160.31K 35 次 2天前

Deadly.Daycare.2014.1080p.AMZN.WEBRip.DDP5.1.x264-ABM.torrent 0 金币 83.65K 49 次 2天前

#1楼
发帖时间:2020-02-15 02:16:35   |   回复数:1
911degrees
隐世仙人♂
非常感谢,谢谢分享
1天前 #2楼
游客组