coor
一代宗师

[2018] [韩国] [剧情] [WEB-1080P] 麻药王 The.Drug.King.2018.KOREAN.1080p.NF.WEBRip.DDP5.1.x264-OUTFLATE 3.74GB

-->

帖子完整标题:麻药王 The.Drug.King.2018.KOREAN.1080p.NF.WEBRip.DDP5.1.x264-OUTFLATE 3.74GB




◎译  名 麻药王 / Drug King / 毒枭 / 毒王
◎片  名 ???
◎年  代 2018
◎产  地 韩国
◎类  别 剧情 / 动作 / 犯罪
◎语  言 韩语
◎上映日期 2018-12-19(韩国)
◎IMDb评分 6.1/10 from 1402 users
◎IMDb链接 https://www.imdb.com/title/tt6914542
◎豆瓣评分 5.8/10 from 9411 users
◎豆瓣链接 https://movie.douban.com/subject/26945122/
◎片  长 139分钟
◎导  演 禹民镐 Min-ho Woo
◎编  剧 禹民镐 Min-ho Woo
◎主  演 宋康昊 Kang-ho Song
      曹政奭 Jeong-seok Cho
      裴斗娜 Doona Bae
      李圣旻 Sung-min Lee
      金大明 Dae-Myung Kim
      金素真 So-Jin Kim
      李熙俊 Hee-jun Lee
      赵宇镇 Woo-jin Jo


◎标  签 韩国 | 犯罪 | 毒品 | 2018 | 传记 | 剧情 | 毒枭 | 历史

◎简  介

  《麻药王》以上世纪70年代的韩国釜山为背景,讲述了宋康昊饰演的李头森从一个毫无底线的走私犯崛起为传奇毒枭的故事。故事原型是上世纪70年代靠走私起家,后跻身毒品制造和贩卖行业并崛起的一代毒枭,导演表示,李头森虽然是虚构人物,但是利用实际存在过的大毒枭作为原型,经过几年的资料调查才完成了剧本。

◎获奖情况

  第55届百想艺术大赏(2019)
  电影类 最佳男配角(提名) 赵宇镇
Video
ID : 1
Format : AVC
Format/Info : Advanced Video Codec
Format profile : [email protected]
Format settings : CABAC / 4 Ref Frames
Format settings, CABAC : Yes
Format settings, Reference frames : 4 frames
Codec ID : V_MPEG4/ISO/AVC
Duration : 2 h 18 min
Bit rate mode : Variable
Bit rate : 3 213 kb/s
Maximum bit rate : 20.0 Mb/s
Width : 1 920 pixels
Height : 1 080 pixels
Display aspect ratio : 16:9
Frame rate mode : Constant
Frame rate : 24.000 FPS
Color space : YUV
Chroma subsampling : 4:2:0
Bit depth : 8 bits
Scan type : Progressive
Bits/(Pixel*Frame) : 0.065
Stream size : 3.11 GiB (83%)
Writing library : x264 core 148 r2715 7e75228
Encoding settings : cabac=1 / ref=4 / deblock=1:0:0 / analyse=0x3:0x111 / me=umh / subme=10 / psy=1 / psy_rd=1.00:0.00 / mixed_ref=1 / me_range=120 / chroma_me=1 / trellis=2 / 8x8dct=1 / cqm=0 / deadzone=21,11 / fast_pskip=1 / chroma_qp_offset=-2 / threads=8 / lookahead_threads=2 / sliced_threads=0 / nr=0 / decimate=1 / interlaced=0 / bluray_compat=0 / stitchable=1 / constrained_intra=0 / bframes=16 / b_pyramid=2 / b_adapt=2 / b_bias=0 / direct=3 / weightb=1 / open_gop=0 / weightp=2 / keyint=240 / keyint_min=121 / scenecut=0 / intra_refresh=0 / rc_lookahead=240 / rc=crf / mbtree=1 / crf=16.0 / qcomp=0.50 / qpmin=6 / qpmax=51 / qpstep=4 / vbv_maxrate=20000 / vbv_bufsize=25000 / crf_max=0.0 / nal_hrd=vbr / filler=0 / ip_ratio=1.40 / aq=1:0.80
Language : Korean
Default : Yes
Forced : No

Audio
ID : 2
Format : E-AC-3
Format/Info : Enhanced AC-3
Commercial name : Dolby Digital Plus
Codec ID : A_EAC3
Duration : 2 h 18 min
Bit rate mode : Constant
Bit rate : 640 kb/s
Channel(s) : 6 channels
Channel layout : L R C LFE Ls Rs
Sampling rate : 48.0 kHz
Frame rate : 31.250 FPS (1536 SPF)
Compression mode : Lossy
Stream size : 636 MiB (17%)
Title : Korean
Language : Korean
Service kind : Complete Main
Default : Yes
Forced : No

Text #1
ID : 3
Format : UTF-8
Codec ID : S_TEXT/UTF8
Codec ID/Info : UTF-8 Plain Text
Duration : 2 h 18 min
Bit rate : 52 b/s
Count of elements : 1579
Stream size : 53.0 KiB (0%)
Title : English
Language : English
Default : Yes
Forced : No

Text #2
ID : 4
Format : UTF-8
Codec ID : S_TEXT/UTF8
Codec ID/Info : UTF-8 Plain Text
Duration : 2 h 18 min
Bit rate : 84 b/s
Count of elements : 1705
Stream size : 85.8 KiB (0%)
Title : Arabic
Language : Arabic
Default : No
Forced : No

Text #3
ID : 5
Format : UTF-8
Codec ID : S_TEXT/UTF8
Codec ID/Info : UTF-8 Plain Text
Duration : 2 h 18 min
Bit rate : 51 b/s
Count of elements : 1706
Stream size : 52.6 KiB (0%)
Title : Chinese (Simplified)
Language : Chinese
Default : No
Forced : No

Text #4
ID : 6
Format : UTF-8
Codec ID : S_TEXT/UTF8
Codec ID/Info : UTF-8 Plain Text
Duration : 2 h 18 min
Bit rate : 52 b/s
Count of elements : 1702
Stream size : 53.3 KiB (0%)
Title : Chinese (Traditional)
Language : Chinese
Default : No
Forced : No

Text #5
ID : 7
Format : UTF-8
Codec ID : S_TEXT/UTF8
Codec ID/Info : UTF-8 Plain Text
Duration : 2 h 18 min
Bit rate : 44 b/s
Count of elements : 1703
Stream size : 45.5 KiB (0%)
Title : Czech
Language : Czech
Default : No
Forced : No

Text #6
ID : 8
Format : UTF-8
Codec ID : S_TEXT/UTF8
Codec ID/Info : UTF-8 Plain Text
Duration : 2 h 18 min
Bit rate : 50 b/s
Count of elements : 1699
Stream size : 51.3 KiB (0%)
Title : Danish
Language : Danish
Default : No
Forced : No

Text #7
ID : 9
Format : UTF-8
Codec ID : S_TEXT/UTF8
Codec ID/Info : UTF-8 Plain Text
Duration : 2 h 18 min
Bit rate : 48 b/s
Count of elements : 1704
Stream size : 49.4 KiB (0%)
Title : Dutch
Language : Dutch
Default : No
Forced : No

Text #8
ID : 10
Format : UTF-8
Codec ID : S_TEXT/UTF8
Codec ID/Info : UTF-8 Plain Text
Duration : 2 h 18 min
Bit rate : 51 b/s
Count of elements : 1704
Stream size : 52.6 KiB (0%)
Title : Finnish
Language : Finnish
Default : No
Forced : No

Text #9
ID : 11
Format : UTF-8
Codec ID : S_TEXT/UTF8
Codec ID/Info : UTF-8 Plain Text
Duration : 2 h 18 min
Bit rate : 53 b/s
Count of elements : 1700
Stream size : 54.6 KiB (0%)
Title : French
Language : French
Default : No
Forced : No

Text #10
ID : 12
Format : UTF-8
Codec ID : S_TEXT/UTF8
Codec ID/Info : UTF-8 Plain Text
Duration : 2 h 18 min
Bit rate : 53 b/s
Count of elements : 1701
Stream size : 54.7 KiB (0%)
Title : German
Language : German
Default : No
Forced : No

Text #11
ID : 13
Format : UTF-8
Codec ID : S_TEXT/UTF8
Codec ID/Info : UTF-8 Plain Text
Duration : 2 h 18 min
Bit rate : 80 b/s
Count of elements : 1704
Stream size : 81.6 KiB (0%)
Title : Greek
Language : Greek
Default : No
Forced : No

Text #12
ID : 14
Format : UTF-8
Codec ID : S_TEXT/UTF8
Codec ID/Info : UTF-8 Plain Text
Duration : 2 h 18 min
Bit rate : 77 b/s
Count of elements : 1704
Stream size : 78.6 KiB (0%)
Title : Hebrew
Language : Hebrew
Default : No
Forced : No

Text #13
ID : 15
Format : UTF-8
Codec ID : S_TEXT/UTF8
Codec ID/Info : UTF-8 Plain Text
Duration : 2 h 18 min
Bit rate : 50 b/s
Count of elements : 1701
Stream size : 51.4 KiB (0%)
Title : Hungarian
Language : Hungarian
Default : No
Forced : No

Text #14
ID : 16
Format : UTF-8
Codec ID : S_TEXT/UTF8
Codec ID/Info : UTF-8 Plain Text
Duration : 2 h 18 min
Bit rate : 47 b/s
Count of elements : 1704
Stream size : 48.3 KiB (0%)
Title : Indonesian
Language : Indonesian
Default : No
Forced : No

Text #15
ID : 17
Format : UTF-8
Codec ID : S_TEXT/UTF8
Codec ID/Info : UTF-8 Plain Text
Duration : 2 h 18 min
Bit rate : 49 b/s
Count of elements : 1698
Stream size : 50.3 KiB (0%)
Title : Italian
Language : Italian
Default : No
Forced : No

Text #16
ID : 18
Format : UTF-8
Codec ID : S_TEXT/UTF8
Codec ID/Info : UTF-8 Plain Text
Duration : 2 h 18 min
Bit rate : 45 b/s
Count of elements : 1343
Stream size : 45.7 KiB (0%)
Title : Japanese
Language : Japanese
Default : No
Forced : No

Text #17
ID : 19
Format : UTF-8
Codec ID : S_TEXT/UTF8
Codec ID/Info : UTF-8 Plain Text
Duration : 2 h 14 min
Bit rate : 90 b/s
Count of elements : 2169
Stream size : 88.9 KiB (0%)
Title : Korean (SDH)
Language : Korean
Default : No
Forced : No

Text #18
ID : 20
Format : UTF-8
Codec ID : S_TEXT/UTF8
Codec ID/Info : UTF-8 Plain Text
Duration : 2 h 18 min
Bit rate : 51 b/s
Count of elements : 1701
Stream size : 51.9 KiB (0%)
Title : Norwegian (Bokmal)
Language : Norwegian Bokmal
Default : No
Forced : No

Text #19
ID : 21
Format : UTF-8
Codec ID : S_TEXT/UTF8
Codec ID/Info : UTF-8 Plain Text
Duration : 2 h 18 min
Bit rate : 40 b/s
Count of elements : 1697
Stream size : 41.1 KiB (0%)
Title : Polish
Language : Polish
Default : No
Forced : No

Text #20
ID : 22
Format : UTF-8
Codec ID : S_TEXT/UTF8
Codec ID/Info : UTF-8 Plain Text
Duration : 2 h 18 min
Bit rate : 49 b/s
Count of elements : 1687
Stream size : 50.0 KiB (0%)
Title : Portuguese
Language : Portuguese
Default : No
Forced : No

Text #21
ID : 23
Format : UTF-8
Codec ID : S_TEXT/UTF8
Codec ID/Info : UTF-8 Plain Text
Duration : 2 h 18 min
Bit rate : 51 b/s
Count of elements : 1705
Stream size : 51.8 KiB (0%)
Title : Portuguese (Brazilian)
Language : Portuguese
Default : No
Forced : No

Text #22
ID : 24
Format : UTF-8
Codec ID : S_TEXT/UTF8
Codec ID/Info : UTF-8 Plain Text
Duration : 2 h 18 min
Bit rate : 55 b/s
Count of elements : 1704
Stream size : 56.4 KiB (0%)
Title : Romanian
Language : Romanian
Default : No
Forced : No

Text #23
ID : 25
Format : UTF-8
Codec ID : S_TEXT/UTF8
Codec ID/Info : UTF-8 Plain Text
Duration : 2 h 18 min
Bit rate : 77 b/s
Count of elements : 1703
Stream size : 78.3 KiB (0%)
Title : Russian
Language : Russian
Default : No
Forced : No

Text #24
ID : 26
Format : UTF-8
Codec ID : S_TEXT/UTF8
Codec ID/Info : UTF-8 Plain Text
Duration : 2 h 18 min
Bit rate : 51 b/s
Count of elements : 1703
Stream size : 52.4 KiB (0%)
Title : Spanish
Language : Spanish
Default : No
Forced : No

Text #25
ID : 27
Format : UTF-8
Codec ID : S_TEXT/UTF8
Codec ID/Info : UTF-8 Plain Text
Duration : 2 h 18 min
Bit rate : 50 b/s
Count of elements : 1701
Stream size : 51.2 KiB (0%)
Title : Spanish (European)
Language : Spanish
Default : No
Forced : No

Text #26
ID : 28
Format : UTF-8
Codec ID : S_TEXT/UTF8
Codec ID/Info : UTF-8 Plain Text
Duration : 2 h 18 min
Bit rate : 49 b/s
Count of elements : 1700
Stream size : 50.7 KiB (0%)
Title : Swedish
Language : Swedish
Default : No
Forced : No

Text #27
ID : 29
Format : UTF-8
Codec ID : S_TEXT/UTF8
Codec ID/Info : UTF-8 Plain Text
Duration : 2 h 18 min
Bit rate : 130 b/s
Count of elements : 1706
Stream size : 133 KiB (0%)
Title : Thai
Language : Thai
Default : No
Forced : No

Text #28
ID : 30
Format : UTF-8
Codec ID : S_TEXT/UTF8
Codec ID/Info : UTF-8 Plain Text
Duration : 2 h 18 min
Bit rate : 54 b/s
Count of elements : 1703
Stream size : 55.2 KiB (0%)
Title : Turkish
Language : Turkish
Default : No
Forced : No

Text #29
ID : 31
Format : UTF-8
Codec ID : S_TEXT/UTF8
Codec ID/Info : UTF-8 Plain Text
Duration : 2 h 18 min
Bit rate : 71 b/s
Count of elements : 1703
Stream size : 73.0 KiB (0%)
Title : Vietnamese
Language : Vietnamese
Default : No
Forced : No





1 个附件 售价 大小 下载 时间

The.Drug.King.2018.KOREAN.1080p.NF.WEBRip.DDP5.1.x264-OUTFLATE.torrent 0 金币 38.05K 413 次 2天前

#1楼
发帖时间:2020-02-15 03:29:50   |   回复数:1
911degrees
隐世仙人♂
非常感谢,谢谢分享
1天前 #2楼
游客组