coor
一代宗师

[2017] [其他] [剧情] [WEB-1080P] 国王/雷伊 Rey.2017.SPANISH.ENSUBBED.1080p.AMZN.WEBRip.DDP2.0.x264-Cinefeel 8.30GB

-->

帖子完整标题:国王/雷伊 Rey.2017.SPANISH.ENSUBBED.1080p.AMZN.WEBRip.DDP2.0.x264-Cinefeel 8.30GB




◎译  名 国王 / 雷伊
◎片  名 Rey
◎年  代 2017
◎产  地 智利 / 法国 / 荷兰 / 德国 / 卡塔尔
◎类  别 剧情
◎语  言 西班牙语 / 马普切语
◎上映日期 2017-01-31(鹿特丹影展)
◎IMDb评分 6.7/10 from 236 users
◎IMDb链接 https://www.imdb.com/title/tt6515470
◎豆瓣评分 6.8/10 from 136 users
◎豆瓣链接 https://movie.douban.com/subject/26754733/
◎片  长 90分钟
◎导  演 奈尔斯·阿塔拉 Niles Atallah
◎编  剧 奈尔斯·阿塔拉 Niles Atallah
◎主  演 Rodrigo Lisboa
      Claudio Riveros


◎标  签 智利 | 2017 | 实验 | 法国 | 荷兰 | 智利电影 | 剧情 | 电影

◎简  介

  曾几何时,一个人只身前往世界尽头。在那里,在新近独立的南美一隅,他创立了自己的王国。这就是1860年,法国冒险家Orllie-Antoine de Tounens的故事,也许有几分疯狂。他用自己起草的宪法和他所扛起旗帜的庇护自己,从马背上的崎岖旷野杀出了一条血路。抵达那里之后,他想方设法团结起本地人并当选为统治者。至少,这是这个真实的故事的一个版本。换言之,他只是一个与当地叛徒里应外合的家伙。他是一个法国间谍!他成功了,但被抓捕,被放逐,最后死亡。但是,到头来呢?谁记得在哪里,发生过什么?在《国王》这部影片里,消退的图像和退化的声音述说着历史和记忆。

◎获奖情况

  第46届鹿特丹国际电影节(2017)
  老虎奖(提名) 奈尔斯·阿塔拉
Video
ID : 1
Format : AVC
Format/Info : Advanced Video Codec
Format profile : [email protected]
Format settings : CABAC / 4 Ref Frames
Format settings, CABAC : Yes
Format settings, Reference frames : 4 frames
Codec ID : V_MPEG4/ISO/AVC
Duration : 1 h 30 min
Bit rate mode : Variable
Bit rate : 12.9 Mb/s
Maximum bit rate : 15.0 Mb/s
Width : 1 920 pixels
Height : 1 040 pixels
Display aspect ratio : 1.85:1
Frame rate mode : Constant
Frame rate : 24.000 FPS
Color space : YUV
Chroma subsampling : 4:2:0
Bit depth : 8 bits
Scan type : Progressive
Bits/(Pixel*Frame) : 0.269
Stream size : 8.16 GiB (98%)
Default : Yes
Forced : No
Color range : Limited
Color primaries : BT.709
Transfer characteristics : BT.709
Matrix coefficients : BT.709

Audio
ID : 2
Format : E-AC-3
Format/Info : Enhanced AC-3
Commercial name : Dolby Digital Plus
Codec ID : A_EAC3
Duration : 1 h 30 min
Bit rate mode : Constant
Bit rate : 224 kb/s
Channel(s) : 2 channels
Channel layout : L R
Sampling rate : 48.0 kHz
Frame rate : 31.250 FPS (1536 SPF)
Compression mode : Lossy
Stream size : 145 MiB (2%)
Language : Spanish
Service kind : Complete Main
Default : Yes
Forced : No





1 个附件 售价 大小 下载 时间

Rey.2017.SPANISH.ENSUBBED.1080p.AMZN.WEBRip.DDP2.0.x264-Cinefeel.torrent 0 金币 83.53K 154 次 7月前

#1楼
发帖时间:2020-02-15 03:45:57   |   回复数:1
911degrees
隐世仙人♂
非常感谢,谢谢分享
7月前 #2楼
游客组