coor
一代宗师

[更 早] [欧美] [其他] [WEB-1080P] 心血来潮 Passing.Fancy.2005.1080p.WEBRip.x264-iNTENSO 4.75GB

-->

帖子完整标题:心血来潮 Passing.Fancy.2005.1080p.WEBRip.x264-iNTENSO 4.75GB




◎译  名 心血来潮
◎片  名 Passing Fancy
◎年  代 2005
◎产  地 美国
◎类  别 悬疑 / 犯罪
◎语  言 英语
◎IMDb评分 5.0/10 from 72 users
◎IMDb链接 https://www.imdb.com/title/tt0486639
◎豆瓣评分 0/10 from 0 users
◎豆瓣链接 https://movie.douban.com/subject/1890824/
◎片  长 USA: 122 分钟
◎导  演 Ron Stone
◎主  演 Amie Dellavalle
      Erynn Dana Dalton
      Antoni Corone


◎标  签 2000s

◎简  介

  "Passing Fancy" is a film about the devastating effects that emotional and sexual abuse reap on the human mind. In this story the abuse leads to drugs, deception, insanity and eventually murder. With few clues to go on, Detective Rodriguez is assigned to the case and charged with the task of bringing a beautiful, murdering seductress to justice. After being sentenced to a life term at a mental institution for the criminally insane, the convicted murderer fights for her freedom while falling in love with the man who put her there.
Video
ID : 1
Format : AVC
Format/Info : Advanced Video Codec
Format profile : [email protected]
Format settings : CABAC / 4 Ref Frames
Format settings, CABAC : Yes
Format settings, Reference frames : 4 frames
Codec ID : V_MPEG4/ISO/AVC
Duration : 1 h 54 min
Bit rate : 5 728 kb/s
Width : 1 920 pixels
Height : 952 pixels
Display aspect ratio : 2.017
Frame rate mode : Constant
Frame rate : 23.976 (24000/1001) FPS
Color space : YUV
Chroma subsampling : 4:2:0
Bit depth : 8 bits
Scan type : Progressive
Bits/(Pixel*Frame) : 0.131
Stream size : 4.60 GiB (97%)
Writing library : x264 core 152 r2851 ba24899
Encoding settings : cabac=1 / ref=4 / deblock=1:-3:-3 / analyse=0x3:0x133 / me=umh / subme=11 / psy=1 / psy_rd=1.05:0.15 / mixed_ref=1 / me_range=16 / chroma_me=1 / trellis=2 / 8x8dct=1 / cqm=0 / deadzone=21,11 / fast_pskip=0 / chroma_qp_offset=-3 / threads=12 / lookahead_threads=1 / sliced_threads=0 / nr=0 / decimate=1 / interlaced=0 / bluray_compat=0 / constrained_intra=0 / bframes=3 / b_pyramid=2 / b_adapt=2 / b_bias=0 / direct=3 / weightb=1 / open_gop=0 / weightp=2 / keyint=250 / keyint_min=24 / scenecut=40 / intra_refresh=0 / rc_lookahead=50 / rc=crf / mbtree=1 / crf=17.0 / qcomp=0.60 / qpmin=0 / qpmax=69 / qpstep=4 / ip_ratio=1.40 / aq=3:0.65
Language : English
Default : Yes
Forced : No

Audio
ID : 2
Format : AAC LC
Format/Info : Advanced Audio Codec Low Complexity
Codec ID : A_AAC-2
Duration : 1 h 54 min
Bit rate : 192 kb/s
Channel(s) : 2 channels
Channel layout : L R
Sampling rate : 48.0 kHz
Frame rate : 46.875 FPS (1024 SPF)
Compression mode : Lossy
Stream size : 155 MiB (3%)
Language : English
Default : Yes
Forced : No





1 个附件 售价 大小 下载 时间

Passing.Fancy.2005.1080p.WEBRip.x264-iNTENSO.torrent 0 金币 190.52K 98 次 2天前

#1楼
发帖时间:2020-02-15 03:47:52   |   回复数:1
911degrees
隐世仙人♂
非常感谢,谢谢分享
1天前 #2楼
游客组