coor
一代宗师

[2016] [欧美] [其他] [WEB-1080P] 走出伊拉克/兵哥情人逃出伊拉克 Out.of.Iraq.2016.1080p.WEBRip.AAC2.0.x264-RTN 2.58GB

-->

帖子完整标题:走出伊拉克/兵哥情人逃出伊拉克 Out.of.Iraq.2016.1080p.WEBRip.AAC2.0.x264-RTN 2.58GB




◎译  名 走出伊拉克 / 兵哥情人逃出伊拉克(港) / 遠走伊拉克(台)
◎片  名 Out of Iraq
◎年  代 2016
◎产  地 美国
◎类  别 纪录片 / 同性
◎语  言 英语 / 阿拉伯语 Arabic
◎上映日期 2016-06-02(美国) / 2017-10-09(中国香港)
◎IMDb评分 7.0/10 from 94 users
◎IMDb链接 https://www.imdb.com/title/tt5930038
◎豆瓣评分 0/10 from 0 users
◎豆瓣链接 https://movie.douban.com/subject/26905709/
◎片  长 81分钟
◎导  演 Eva Orner / Chris McKim
◎主  演 Nayyef Hrebid
      Btoo Allami


◎标  签 纪录片 | 同性 | 战争 | 伊拉克 | 美国 | LGBT | 电影 | 2016

◎简  介

  2003年,在伊拉克战争时期,赫勒比德(Nayyef Hrebid)与阿拉米(Btoo Allami)坠入爱河。他们都是伊拉克军人,赫勒比德以翻译员身份帮助美国海军陆战队训练伊拉克新兵,而阿拉米就是来自伊拉克军队的新兵之一。某天夜里,他们分享了第一个吻,美妙的感觉令阿拉米整整两天茶饭不思。
  赫勒比德表示,他和阿拉米被迫在谎言中遮遮掩掩地生活。每逢休假,他们就去没有熟人的城市短暂相聚。一旦他们的性取向被人发现,等待他们的将是暴力、虐待甚至死亡。
  随着伊拉克战争逐渐平息,赫勒比德发现许多翻译员准备离开伊拉克前往其他国家,于是他有了同样的想法。“如果我们留在伊拉克,将不得不找个女人结婚,这是在伊拉克生存的唯一办法。而且,我为美国人工作过,被民间武装分子视为叛徒。我也有权活下去,我必须拯救自己,拯救我和阿拉米的关系。”
  流亡之路的艰辛是一般人无法想象的,唯一能让赫勒比德和阿拉米感到欣慰的是他们始终同甘共苦、不离不弃。赫勒比德说:“有些时候我们甚至无法见面、无法触碰对方,但这一切都让我们的爱更强大,因为我们知道,无论发生什么事情,总有一天我们会团聚。”
  这部纪录片由奥斯卡奖得主奥纳(Eva Orner)和麦金(Chris McKim)联合执导,6月2日在洛杉矶电影节首映,6月13日在Logo电视台纪录电影频道播出。
Video
ID : 1
Format : AVC
Format/Info : Advanced Video Codec
Format profile : [email protected]
Format settings : CABAC / 4 Ref Frames
Format settings, CABAC : Yes
Format settings, Reference frames : 4 frames
Codec ID : V_MPEG4/ISO/AVC
Duration : 1 h 21 min
Bit rate : 4 378 kb/s
Width : 1 920 pixels
Height : 1 080 pixels
Display aspect ratio : 16:9
Frame rate mode : Variable
Frame rate : 23.976 (23976/1000) FPS
Color space : YUV
Chroma subsampling : 4:2:0
Bit depth : 8 bits
Scan type : Progressive
Bits/(Pixel*Frame) : 0.088
Stream size : 2.50 GiB (97%)
Writing library : x264 core 148
Encoding settings : cabac=1 / ref=4 / deblock=1:0:0 / analyse=0x3:0x113 / me=umh / subme=10 / psy=1 / psy_rd=1.00:0.15 / mixed_ref=1 / me_range=32 / chroma_me=1 / trellis=2 / 8x8dct=1 / cqm=0 / deadzone=21,11 / fast_pskip=1 / chroma_qp_offset=-3 / threads=24 / lookahead_threads=6 / sliced_threads=0 / nr=0 / decimate=1 / interlaced=0 / bluray_compat=0 / constrained_intra=0 / bframes=3 / b_pyramid=0 / b_adapt=2 / b_bias=0 / direct=3 / weightb=1 / open_gop=0 / weightp=2 / keyint=48 / keyint_min=4 / scenecut=0 / intra_refresh=0 / rc_lookahead=48 / rc=crf / mbtree=1 / crf=19.0 / qcomp=0.75 / qpmin=10 / qpmax=51 / qpstep=4 / vbv_maxrate=5000 / vbv_bufsize=10000 / crf_max=0.0 / nal_hrd=none / filler=0 / ip_ratio=1.40 / aq=1:0.80
Default : Yes
Forced : No

Audio
ID : 2
Format : AAC LC
Format/Info : Advanced Audio Codec Low Complexity
Codec ID : A_AAC-2
Duration : 1 h 21 min
Bit rate : 128 kb/s
Channel(s) : 2 channels
Channel layout : L R
Sampling rate : 48.0 kHz
Frame rate : 46.875 FPS (1024 SPF)
Compression mode : Lossy
Delay relative to video : -41 ms
Stream size : 75.0 MiB (3%)
Default : Yes
Forced : No

Text
ID : 3
Format : UTF-8
Codec ID : S_TEXT/UTF8
Codec ID/Info : UTF-8 Plain Text
Duration : 1 h 20 min
Bit rate : 56 b/s
Count of elements : 887
Stream size : 33.5 KiB (0%)
Default : Yes
Forced : No





1 个附件 售价 大小 下载 时间

Out.of.Iraq.2016.1080p.WEBRip.AAC2.0.x264-RTN.torrent 0 金币 52.17K 140 次 7月前

#1楼
发帖时间:2020-02-15 03:50:00   |   回复数:1
911degrees
隐世仙人♂
非常感谢,谢谢分享
7月前 #2楼
游客组