coor
一代宗师

[2016] [泰国] [剧情] [WEB-1080P] 相爱一天 One.Day.2016.THAI.1080p.NF.WEBRip.DD5.1.x264-AJP69 3.87GB

-->

帖子完整标题:相爱一天 One.Day.2016.THAI.1080p.NF.WEBRip.DD5.1.x264-AJP69 3.87GB




◎译  名 相爱一天 / Fan Kun Khae Wan Diaw / Fan-day / One Day / 一日恋人(台) / 一日情人(港) / 一日情侣
◎片  名 ??????? ?????????????????
◎年  代 2016
◎产  地 泰国
◎类  别 剧情 / 爱情
◎语  言 泰语
◎上映日期 2016-09-15(泰国) / 2017-04-07(中国台湾)
◎IMDb评分 7.7/10 from 1704 users
◎IMDb链接 https://www.imdb.com/title/tt6168298
◎豆瓣评分 7.4/10 from 6087 users
◎豆瓣链接 https://movie.douban.com/subject/26902245/
◎片  长 134分钟
◎导  演 班庄·比辛达拿刚 Banjong Pisanthanakun
◎编  剧 班庄·比辛达拿刚 Banjong Pisanthanakun / Nontra Khumvong / 辰塔维·塔纳西维 Ter? Chantavit Dhanasevi
◎主  演 辰塔维·塔纳西维 Ter? Chantavit Dhanasevi
      Nittha Jirayungyurn
      Theerapat Sajakul


◎标  签 泰国 | 爱情 | 文艺 | 温情 | 2016 | 感人 | 伤感 | 剧情

◎简  介

  30岁的“书呆子”Denchai(Ter饰)在办公室里,只有帮同事修电脑的时候,才有些许存在感。直到Denchai认识了市场专员Nui(Mew饰),被Nui的可爱和真诚迷倒。但Denchai唯一能做的就是远远守护。然而,命运却眷顾了这个书呆子。Nui滑雪遭遇意外,醒来却暂时性失忆了,这个病叫“TGA”,症状是仅失忆一天。Denchai觉得这是他靠近Nui的唯一机会,于是他谎称与Nui是情侣,以男友的身份与Nui共度了一段特别的时光,尽管他们只是一天的情侣… ..
Video
ID : 1
Format : AVC
Format/Info : Advanced Video Codec
Format profile : [email protected]
Format settings : CABAC / 3 Ref Frames
Format settings, CABAC : Yes
Format settings, Reference frames : 3 frames
Codec ID : V_MPEG4/ISO/AVC
Duration : 2 h 14 min
Bit rate mode : Variable
Bit rate : 3 480 kb/s
Maximum bit rate : 5 220 kb/s
Width : 1 920 pixels
Height : 1 080 pixels
Display aspect ratio : 16:9
Frame rate mode : Constant
Frame rate : 24.000 FPS
Color space : YUV
Chroma subsampling : 4:2:0
Bit depth : 8 bits
Scan type : Progressive
Bits/(Pixel*Frame) : 0.070
Stream size : 3.27 GiB (84%)
Writing library : x264 core 148 r2715 7e75228
Encoding settings : cabac=1 / ref=3 / deblock=1:0:0 / analyse=0x1:0x111 / me=umh / subme=10 / psy=1 / psy_rd=1.00:0.00 / mixed_ref=1 / me_range=24 / chroma_me=1 / trellis=2 / 8x8dct=0 / cqm=0 / deadzone=21,11 / fast_pskip=1 / chroma_qp_offset=-2 / threads=8 / lookahead_threads=1 / sliced_threads=0 / nr=0 / decimate=1 / interlaced=0 / bluray_compat=0 / stitchable=1 / constrained_intra=0 / bframes=2 / b_pyramid=0 / b_adapt=2 / b_bias=0 / direct=3 / weightb=1 / open_gop=0 / weightp=2 / keyint=48 / keyint_min=25 / scenecut=0 / intra_refresh=0 / rc_lookahead=48 / rc=2pass / mbtree=1 / bitrate=3480 / ratetol=1.0 / qcomp=0.50 / qpmin=6 / qpmax=51 / qpstep=4 / cplxblur=20.0 / qblur=0.5 / vbv_maxrate=5220 / vbv_bufsize=6960 / nal_hrd=vbr / filler=0 / ip_ratio=1.40 / aq=1:1.00
Default : Yes
Forced : No

Audio
ID : 2
Format : E-AC-3
Format/Info : Enhanced AC-3
Commercial name : Dolby Digital Plus
Codec ID : A_EAC3
Duration : 2 h 14 min
Bit rate mode : Constant
Bit rate : 640 kb/s
Channel(s) : 6 channels
Channel layout : L R C LFE Ls Rs
Sampling rate : 48.0 kHz
Frame rate : 31.250 FPS (1536 SPF)
Compression mode : Lossy
Stream size : 618 MiB (16%)
Title : Thai
Language : Thai
Service kind : Complete Main
Default : Yes
Forced : No

Text #1
ID : 3
Format : UTF-8
Codec ID : S_TEXT/UTF8
Codec ID/Info : UTF-8 Plain Text
Duration : 1 h 50 min
Bit rate : 9 b/s
Count of elements : 120
Stream size : 7.71 KiB (0%)
Title : Forced
Language : Thai
Default : No
Forced : Yes

Text #2
ID : 4
Format : UTF-8
Codec ID : S_TEXT/UTF8
Codec ID/Info : UTF-8 Plain Text
Duration : 2 h 7 min
Bit rate : 39 b/s
Count of elements : 1380
Stream size : 36.5 KiB (0%)
Language : English
Default : No
Forced : No

Text #3
ID : 5
Format : UTF-8
Codec ID : S_TEXT/UTF8
Codec ID/Info : UTF-8 Plain Text
Duration : 2 h 7 min
Bit rate : 139 b/s
Count of elements : 2092
Stream size : 130 KiB (0%)
Title : SDH
Language : Thai
Default : No
Forced : No





1 个附件 售价 大小 下载 时间

One.Day.2016.THAI.1080p.NF.WEBRip.DD5.1.x264-AJP69.torrent 0 金币 77.99K 217 次 2天前

#1楼
发帖时间:2020-02-15 03:51:55   |   回复数:1
911degrees
隐世仙人♂
非常感谢,谢谢分享
1天前 #2楼
游客组