coor
一代宗师

[2016] [其他] [剧情] [WEB-1080P] 分分合合 On.Again.Off.Again.2016.1080p.AMZN.WEBRip.DDP2.0.x264-QOQ 4.96GB

-->

帖子完整标题:分分合合 On.Again.Off.Again.2016.1080p.AMZN.WEBRip.DDP2.0.x264-QOQ 4.96GB




◎译  名 分分合合
◎片  名 On Again Off Again
◎年  代 2016
◎产  地 加拿大
◎类  别 剧情 / 爱情
◎语  言 英语
◎上映日期 2016-08-05(加拿大)
◎IMDb评分 5.0/10 from 55 users
◎IMDb链接 https://www.imdb.com/title/tt5831146
◎豆瓣评分 0/10 from 0 users
◎豆瓣链接 https://movie.douban.com/subject/27131907/
◎片  长 90分钟
◎导  演 Biko Franklin / Arsalan Shirazi
◎主  演 Arsalan Shirazi
      Samantha Spatari


◎标  签 温情

◎简  介

  Demanding careers. Family pressure. Exes. Finally, an honest portrayal of the highs and lows of modern romance in this story about the ones we can't stay with...but can't seem to let [email protected]
Video
ID : 1
Format : AVC
Format/Info : Advanced Video Codec
Format profile : [email protected]
Format settings : CABAC / 4 Ref Frames
Format settings, CABAC : Yes
Format settings, Reference frames : 4 frames
Codec ID : V_MPEG4/ISO/AVC
Duration : 1 h 37 min
Bit rate mode : Variable
Bit rate : 7 033 kb/s
Maximum bit rate : 15.0 Mb/s
Width : 1 920 pixels
Height : 800 pixels
Display aspect ratio : 2.40:1
Frame rate mode : Constant
Frame rate : 24.000 FPS
Color space : YUV
Chroma subsampling : 4:2:0
Bit depth : 8 bits
Scan type : Progressive
Bits/(Pixel*Frame) : 0.191
Stream size : 4.80 GiB (97%)
Default : Yes
Forced : No
Color range : Limited
Color primaries : BT.709
Transfer characteristics : BT.709
Matrix coefficients : BT.709

Audio
ID : 2
Format : E-AC-3
Format/Info : Enhanced AC-3
Commercial name : Dolby Digital Plus
Codec ID : A_EAC3
Duration : 1 h 37 min
Bit rate mode : Constant
Bit rate : 224 kb/s
Channel(s) : 2 channels
Channel layout : L R
Sampling rate : 48.0 kHz
Frame rate : 31.250 FPS (1536 SPF)
Compression mode : Lossy
Stream size : 157 MiB (3%)
Language : English
Service kind : Complete Main
Default : Yes
Forced : No

Text
ID : 3
Format : UTF-8
Codec ID : S_TEXT/UTF8
Codec ID/Info : UTF-8 Plain Text
Duration : 1 h 33 min
Bit rate : 36 b/s
Count of elements : 658
Stream size : 24.8 KiB (0%)
Language : English
Default : No
Forced : No





1 个附件 售价 大小 下载 时间

On.Again.Off.Again.2016.1080p.AMZN.WEBRip.DDP2.0.x264-QOQ.torrent 0 金币 99.70K 168 次 7月前

#1楼
发帖时间:2020-02-15 03:53:58   |   回复数:1
911degrees
隐世仙人♂
非常感谢,谢谢分享
7月前 #2楼
游客组