coor
一代宗师

[2014] [其他] [WEB-1080P] 墨西哥恐怖故事 Mexico.Barbaro.2014.SPANISH.1080p.NF.WEBRip.DDP2.0.x264-QOQ 5.02GB

-->

帖子完整标题:墨西哥恐怖故事 Mexico.Barbaro.2014.SPANISH.1080p.NF.WEBRip.DDP2.0.x264-QOQ 5.02GB




◎译  名 墨西哥恐怖故事 / Barbarous Mexico
◎片  名 México Bárbaro
◎年  代 2014
◎产  地 墨西哥
◎语  言 西班牙语
◎IMDb评分 4.8/10 from 773 users
◎IMDb链接 https://www.imdb.com/title/tt3363888
◎豆瓣评分 0/10 from 0 users
◎豆瓣链接 https://movie.douban.com/subject/26429607/
◎片  长 113分钟

◎标  签 恐怖 | 美式恐怖 | 墨西哥 | 异域 | 黑色幽默 | 分段式 | 番茄 | 墨西哥电影

◎简  介

  暂无相关剧情介绍
Video
ID : 1
Format : AVC
Format/Info : Advanced Video Codec
Format profile : [email protected]
Format settings : CABAC / 3 Ref Frames
Format settings, CABAC : Yes
Format settings, Reference frames : 3 frames
Codec ID : V_MPEG4/ISO/AVC
Duration : 1 h 54 min
Bit rate mode : Variable
Bit rate : 6 190 kb/s
Maximum bit rate : 9 285 kb/s
Width : 1 920 pixels
Height : 1 080 pixels
Display aspect ratio : 16:9
Frame rate mode : Constant
Frame rate : 23.976 (24000/1001) FPS
Color space : YUV
Chroma subsampling : 4:2:0
Bit depth : 8 bits
Scan type : Progressive
Bits/(Pixel*Frame) : 0.125
Stream size : 4.92 GiB (98%)
Writing library : x264 core 118
Encoding settings : cabac=1 / ref=3 / deblock=1:0:0 / analyse=0x1:0x111 / me=umh / subme=10 / psy=1 / psy_rd=1.00:0.00 / mixed_ref=1 / me_range=24 / chroma_me=1 / trellis=2 / 8x8dct=0 / cqm=0 / deadzone=21,11 / fast_pskip=1 / chroma_qp_offset=-2 / threads=8 / sliced_threads=0 / nr=0 / decimate=1 / interlaced=0 / bluray_compat=0 / constrained_intra=0 / bframes=2 / b_pyramid=0 / b_adapt=2 / b_bias=0 / direct=3 / weightb=1 / open_gop=0 / weightp=2 / keyint=48 / keyint_min=25 / scenecut=0 / intra_refresh=0 / rc_lookahead=0 / rc=2pass / mbtree=1 / bitrate=6190 / ratetol=1.0 / qcomp=0.50 / qpmin=6 / qpmax=51 / qpstep=4 / cplxblur=20.0 / qblur=0.5 / vbv_maxrate=9285 / vbv_bufsize=12380 / nal_hrd=vbr / ip_ratio=1.40 / aq=1:1.00
Default : Yes
Forced : No

Audio
ID : 2
Format : E-AC-3
Format/Info : Enhanced AC-3
Commercial name : Dolby Digital Plus
Codec ID : A_EAC3
Duration : 1 h 54 min
Bit rate mode : Constant
Bit rate : 128 kb/s
Channel(s) : 2 channels
Channel layout : L R
Sampling rate : 48.0 kHz
Frame rate : 31.250 FPS (1536 SPF)
Compression mode : Lossy
Stream size : 105 MiB (2%)
Language : Spanish
Service kind : Complete Main
Default : Yes
Forced : No

Text #1
ID : 3
Format : UTF-8
Codec ID : S_TEXT/UTF8
Codec ID/Info : UTF-8 Plain Text
Duration : 1 h 38 min
Bit rate : 14 b/s
Count of elements : 395
Stream size : 10.5 KiB (0%)
Language : English
Default : No
Forced : No

Text #2
ID : 4
Format : UTF-8
Codec ID : S_TEXT/UTF8
Codec ID/Info : UTF-8 Plain Text
Duration : 1 h 38 min
Bit rate : 18 b/s
Count of elements : 453
Stream size : 13.2 KiB (0%)
Language : Spanish
Default : No
Forced : No





1 个附件 售价 大小 下载 时间

Mexico.Barbaro.2014.SPANISH.1080p.NF.WEBRip.DDP2.0.x264-QOQ.torrent 0 金币 50.74K 203 次 2天前

#1楼
发帖时间:2020-02-15 03:57:58   |   回复数:3
chulps
一代宗师
~ 珍惜+支持 ~
2天前 #2楼
911degrees
隐世仙人♂
非常感谢,谢谢分享
1天前 #3楼
kola13
一派掌门
感谢分享
1天前 #4楼
游客组