coor
一代宗师

[2019] [韩国] [剧情] [WEB-1080P] 陪审员 Juror.8.2019.KOREAN.1080p.AMZN.WEBRip.DDP2.0.x264-ARiN 7.38GB

-->

帖子完整标题:陪审员 Juror.8.2019.KOREAN.1080p.AMZN.WEBRip.DDP2.0.x264-ARiN 7.38GB




◎译  名 陪审员 / Juror 8 / The Juror / 菜鸟陪审团(台) / 陪审员们
◎片  名 ????
◎年  代 2019
◎产  地 韩国
◎类  别 剧情
◎语  言 韩语
◎上映日期 2019-05-15(韩国)
◎IMDb评分 6.9/10 from 316 users
◎IMDb链接 https://www.imdb.com/title/tt6985094
◎豆瓣评分 7.5/10 from 6147 users
◎豆瓣链接 https://movie.douban.com/subject/27115758/
◎片  长 114分钟
◎导  演 洪承完 Seung-wan Hong
◎编  剧 洪承完 Seung-wan Hong
◎主  演 文素丽 So-ri Moon
      朴炯植 Hyung-Shik Park
      白秀章 Soo-Jang Baek
      金美京 Mi-kyung Kim
      尹敬浩 Kyung-ho Yoon
      徐正妍 Seo Jung-yeon
      赵汉哲 Han-chul Jo
      金弘波 Hong-Fa Kim
      曹秀香 Soo-hyang Cho
      权海虓 Hae-hyo Kwon
      太仁镐 In-ho Tae
      徐贤宇 Seo Hyeon-woo
      李容怡 Young-yi Lee
      廉东宪 Dong-hun Yum


◎标  签 韩国 | 法律 | 剧情 | 社会 | 2019 | 人性 | 律政 | 政治

◎简  介

  影片讲述围绕一起意外事件,国民陪审团的成员们探寻什么是正义的故事。

◎获奖情况

  第40届韩国电影青龙奖(2019)
  最佳新人男演员(提名) 朴炯植
Video
ID : 1
Format : AVC
Format/Info : Advanced Video Codec
Format profile : [email protected]
Format settings : CABAC / 4 Ref Frames
Format settings, CABAC : Yes
Format settings, Reference frames : 4 frames
Codec ID : V_MPEG4/ISO/AVC
Duration : 1 h 54 min
Bit rate mode : Constant
Bit rate : 9 039 kb/s
Nominal bit rate : 10 000 kb/s
Width : 1 920 pixels
Height : 1 040 pixels
Display aspect ratio : 1.85:1
Frame rate mode : Constant
Frame rate : 23.976 (24000/1001) FPS
Color space : YUV
Chroma subsampling : 4:2:0
Bit depth : 8 bits
Scan type : Progressive
Bits/(Pixel*Frame) : 0.189
Stream size : 7.20 GiB (98%)
Default : Yes
Forced : No
Color range : Limited
Color primaries : BT.709
Transfer characteristics : BT.709
Matrix coefficients : BT.709

Audio
ID : 2
Format : E-AC-3
Format/Info : Enhanced AC-3
Commercial name : Dolby Digital Plus
Codec ID : A_EAC3
Duration : 1 h 54 min
Bit rate mode : Constant
Bit rate : 224 kb/s
Channel(s) : 2 channels
Channel layout : L R
Sampling rate : 48.0 kHz
Frame rate : 31.250 FPS (1536 SPF)
Compression mode : Lossy
Stream size : 183 MiB (2%)
Language : Korean
Service kind : Complete Main
Default : Yes
Forced : No

Text #1
ID : 3
Format : UTF-8
Codec ID : S_TEXT/UTF8
Codec ID/Info : UTF-8 Plain Text
Duration : 1 h 48 min
Bit rate : 49 b/s
Count of elements : 1221
Stream size : 39.2 KiB (0%)
Title : English
Language : English
Default : No
Forced : No

Text #2
ID : 4
Format : UTF-8
Codec ID : S_TEXT/UTF8
Codec ID/Info : UTF-8 Plain Text
Duration : 1 h 48 min
Bit rate : 49 b/s
Count of elements : 1221
Stream size : 39.2 KiB (0%)
Title : English SDH
Language : English
Default : No
Forced : No





1 个附件 售价 大小 下载 时间

Juror.8.2019.KOREAN.1080p.AMZN.WEBRip.DDP2.0.x264-ARiN.torrent 0 金币 37.42K 546 次 6天前

#1楼
发帖时间:2020-02-15 03:59:55   |   回复数:1
911degrees
隐世仙人♂
非常感谢,谢谢分享
5天前 #2楼
游客组