coor
一代宗师

[更 早] [其他] [其他] [BD-1080P] 阿帕奇黄金 Winnetou.1963.DUBBED.1080p.BluRay.x264-BiPOLAR 8.18GB

-->




◎译  名 阿帕奇黄金 / Apache Gold / 阿帕切黄金
◎片  名 Winnetou - 1. Teil
◎年  代 1963
◎产  地 西德 / 南斯拉夫 / 意大利
◎类  别 西部 / 冒险
◎语  言 德语
◎上映日期 1963
◎IMDb评分 6.9/10 from 3489 users
◎IMDb链接 https://www.imdb.com/title/tt0057687
◎豆瓣评分 0/10 from 0 users
◎豆瓣链接 https://movie.douban.com/subject/5058592/
◎片  长 101 分钟
◎导  演 赖恩尔·哈拉尔德 Harald Reinl
◎编  剧 卡尔·梅 Karl May
◎主  演 莱克斯·巴克 Lex Barker
      皮埃尔·布莱斯 Pierre Brice
      玛丽·沃西尼 Marie Versini
      马里奥·阿多夫 Mario Adorf
      Walter Barnes
      Husein Cokic


◎标  签 西部片 | 西部 | 德国|德语电影 | 1963 | 远古类型西部片 | 德国电影 | 意大利 | 卡尔梅

◎简  介

  The film was one of a series that attempted for the first time to capture the unique and high romantic Western novels of Germany's greatest adventure writer Karl May. Now, more than 30 years later, and with a video copy of the film in my library to look at when in the mood, I find this version of Karl May's novel rather quaint and clumsy in terms of script/screenplay and certainly out of step with the more popularised versions of the Wild West.
  However, May's portrayal of late 19th century America was always a mixture of well researched facts mingled with high romantic fantasy adventure in the "Knights of the Round Table" or "Star Wars" vein. In this regard, the film does capture the spirit of Karl May's novels pretty well, if rather geared towards an assumed prior knowledge by the audience of the characters and of May's novels. From today's sophisticated movie audience's perspective this film version of "Winnetou I" is still noteworthy for its magnificent soundtrack rivaling any John Williams score, and for the noble portrayal of the hero by French actor Pierre Brice, who made this role his own in numerous sequels and stage shows.
Video
ID : 1
Format : AVC
Format/Info : Advanced Video Codec
Format profile : [email protected]
Format settings : CABAC / 5 Ref Frames
Format settings, CABAC : Yes
Format settings, Reference frames : 5 frames
Codec ID : V_MPEG4/ISO/AVC
Duration : 1 h 41 min
Bit rate : 11.1 Mb/s
Width : 1 916 pixels
Height : 816 pixels
Display aspect ratio : 2.35:1
Frame rate mode : Constant
Frame rate : 24.000 FPS
Color space : YUV
Chroma subsampling : 4:2:0
Bit depth : 8 bits
Scan type : Progressive
Bits/(Pixel*Frame) : 0.297
Stream size : 7.90 GiB (97%)
Writing library : x264 core 160 r3000 33f9e14
Encoding settings : cabac=1 / ref=5 / deblock=1:-3:-3 / analyse=0x3:0x133 / me=umh / subme=10 / psy=1 / psy_rd=1.00:0.15 / mixed_ref=1 / me_range=24 / chroma_me=1 / trellis=2 / 8x8dct=1 / cqm=0 / deadzone=21,11 / fast_pskip=1 / chroma_qp_offset=-3 / threads=18 / lookahead_threads=3 / sliced_threads=0 / nr=0 / decimate=1 / interlaced=0 / bluray_compat=0 / constrained_intra=0 / bframes=8 / b_pyramid=2 / b_adapt=2 / b_bias=0 / direct=3 / weightb=1 / open_gop=0 / weightp=2 / keyint=250 / keyint_min=24 / scenecut=40 / intra_refresh=0 / rc_lookahead=60 / rc=crf / mbtree=1 / crf=22.2 / qcomp=0.60 / qpmin=0 / qpmax=69 / qpstep=4 / ip_ratio=1.40 / aq=3:0.60
Language : English
Default : Yes
Forced : No
Color range : Limited
Matrix coefficients : BT.709

Audio
ID : 2
Format : FLAC
Format/Info : Free Lossless Audio Codec
Codec ID : A_FLAC
Duration : 1 h 41 min
Bit rate mode : Variable
Bit rate : 392 kb/s
Channel(s) : 2 channels
Channel layout : L R
Sampling rate : 48.0 kHz
Frame rate : 11.719 FPS (4096 SPF)
Bit depth : 16 bits
Compression mode : Lossless
Stream size : 285 MiB (3%)
Writing library : libFLAC 1.2.1 (UTC 2007-09-17)
Language : English
Default : Yes
Forced : No

Text #1
ID : 3
Format : UTF-8
Codec ID : S_TEXT/UTF8
Codec ID/Info : UTF-8 Plain Text
Duration : 1 h 20 min
Bit rate : 8 b/s
Count of elements : 95
Stream size : 4.97 KiB (0%)
Title : English forced
Language : English
Default : Yes
Forced : Yes

Text #2
ID : 4
Format : UTF-8
Codec ID : S_TEXT/UTF8
Codec ID/Info : UTF-8 Plain Text
Duration : 1 h 39 min
Bit rate : 36 b/s
Count of elements : 590
Stream size : 26.8 KiB (0%)
Title : English
Language : English
Default : No
Forced : No

Text #3
ID : 5
Format : PGS
Muxing mode : zlib
Codec ID : S_HDMV/PGS
Codec ID/Info : Picture based subtitle format used on BDs/HD-DVDs
Duration : 1 h 20 min
Bit rate : 1 452 b/s
Count of elements : 190
Stream size : 858 KiB (0%)
Title : English forced
Language : English
Default : No
Forced : No

Text #4
ID : 6
Format : PGS
Muxing mode : zlib
Codec ID : S_HDMV/PGS
Codec ID/Info : Picture based subtitle format used on BDs/HD-DVDs
Duration : 1 h 39 min
Bit rate : 6 454 b/s
Count of elements : 1180
Stream size : 4.58 MiB (0%)
Title : English
Language : English
Default : No
Forced : No

Menu
00:00:00.000 : en:00:00:00.000
00:03:42.083 : en:00:03:42.083
00:07:47.125 : en:00:07:47.125
00:17:59.542 : en:00:17:59.542
00:26:07.500 : en:00:26:07.500
00:39:27.292 : en:00:39:27.292
00:45:41.917 : en:00:45:41.917
00:54:03.583 : en:00:54:03.583
01:01:55.208 : en:01:01:55.208
01:15:11.625 : en:01:15:11.625
01:21:53.000 : en:01:21:53.000
01:27:35.833 : en:01:27:35.833





1 个附件 售价 大小 下载 时间

Winnetou.1963.DUBBED.1080p.BluRay.x264-BiPOLAR.torrent 0 金币 41.57K 259 次 1月前

#1楼
发帖时间:2020-05-25 16:33:30   |   回复数:1
911degrees
隐世仙人♂
非常感谢,谢谢分享
1月前 #2楼
游客组