coor
一代宗师

[2016] [欧美] [其他] [WEB-1080P] 魔法城堡 The.Academy.Of.Magic.2020.1080p.WEB-DL.DD5.1.H264-FGT 3.03GB

-->




◎译  名 The Academy of Magic / The Academy of Oz
◎片  名 魔法城堡
◎年  代 2016
◎产  地 美国
◎类  别 动画
◎语  言 英语
◎上映日期 2016-11-05(中国大陆)
◎IMDb链接 https://www.imdb.com/title/tt5768992
◎豆瓣评分 0/10 from 0 users
◎豆瓣链接 https://movie.douban.com/subject/26902785/

◎标  签 333333

◎简  介

  Doris came to the Magic Academy together with the Scarecrow and Tin Man to learn the magic to save uncle and aunt who are under a black magic spell.
Video
ID : 1
Format : AVC
Format/Info : Advanced Video Codec
Format profile : [email protected]
Format settings : CABAC / 5 Ref Frames
Format settings, CABAC : Yes
Format settings, Reference frames : 5 frames
Codec ID : V_MPEG4/ISO/AVC
Duration : 1 h 30 min
Bit rate : 4 417 kb/s
Width : 1 916 pixels
Height : 800 pixels
Display aspect ratio : 2.40:1
Frame rate mode : Constant
Frame rate : 24.000 FPS
Color space : YUV
Chroma subsampling : 4:2:0
Bit depth : 8 bits
Scan type : Progressive
Bits/(Pixel*Frame) : 0.120
Stream size : 2.78 GiB (92%)
Title : The.Academy.Of.Magic.2020.1080p.WEB-DL.DD5.1.H264-FGT
Language : English
Default : Yes
Forced : No
Color range : Limited
Color primaries : BT.709
Transfer characteristics : BT.709
Matrix coefficients : BT.709

Audio
ID : 2
Format : AC-3
Format/Info : Audio Coding 3
Commercial name : Dolby Digital
Codec ID : A_AC3
Duration : 1 h 30 min
Bit rate mode : Constant
Bit rate : 384 kb/s
Channel(s) : 6 channels
Channel layout : L R C LFE Ls Rs
Sampling rate : 48.0 kHz
Frame rate : 31.250 FPS (1536 SPF)
Bit depth : 16 bits
Compression mode : Lossy
Stream size : 248 MiB (8%)
Title : The.Academy.Of.Magic.2020.1080p.WEB-DL.DD5.1.H264-FGT
Language : English
Service kind : Complete Main
Default : Yes
Forced : No

Menu
00:00:00.000 : en:Chapter 1
00:21:15.875 : en:Chapter 2
00:39:04.791 : en:Chapter 3
00:58:17.791 : en:Chapter 4
01:18:28.457 : en:Chapter 5





1 个附件 售价 大小 下载 时间

The.Academy.Of.Magic.2020.1080p.WEB-DL.DD5.1.H264-FGT.torrent 0 金币 30.80K 371 次 1月前

#1楼
发帖时间:2020-05-25 19:08:30   |   回复数:1
911degrees
隐世仙人♂
非常感谢,谢谢分享
1月前 #2楼
游客组