coor
一代宗师

[2019] [其他] [剧情] [WEB-1080P] 针锋相对 Measure.For.Measure.2019.1080p.WEB-DL.DD5.1.H264-FGT 3.72GB

-->




◎译  名 针锋相对 / M4M
◎片  名 Measure for Measure
◎年  代 2019
◎产  地 澳大利亚
◎类  别 剧情
◎语  言 英语
◎上映日期 2019-10-10(釜山电影节)
◎IMDb评分 7.3/10 from 33 users
◎IMDb链接 https://www.imdb.com/title/tt8846706
◎豆瓣评分 0/10 from 0 users
◎豆瓣链接 https://movie.douban.com/subject/33396754/
◎片  长 101分钟
◎导  演 保罗·爱尔兰 Paul Ireland
◎编  剧 Damian Hill / 保罗·爱尔兰 Paul Ireland
◎主  演 雨果·维文 Hugo Weaving
      哈里森·吉尔伯特森 Harrison Gilbertson
      丹尼尔·亨绍尔 Daniel Henshall
      马克·伦纳德·温特 Mark Leonard Winter
      Doris Younane


◎标  签 bankside

◎简  介

  An unlikely romance ignites between a young immigrant muslim girl and a young musician, set against Melbourne’s notorious commission flats, where a world of crime, drugs, and racial disharmony reign.
Video
ID : 1
Format : AVC
Format/Info : Advanced Video Codec
Format profile : [email protected]
Format settings : CABAC / 5 Ref Frames
Format settings, CABAC : Yes
Format settings, Reference frames : 5 frames
Codec ID : V_MPEG4/ISO/AVC
Duration : 1 h 47 min
Bit rate : 4 589 kb/s
Width : 1 916 pixels
Height : 804 pixels
Display aspect ratio : 2.40:1
Frame rate mode : Constant
Frame rate : 24.000 FPS
Color space : YUV
Chroma subsampling : 4:2:0
Bit depth : 8 bits
Scan type : Progressive
Bits/(Pixel*Frame) : 0.124
Stream size : 3.43 GiB (92%)
Title : Measure.For.Measure.2019.1080p.WEB-DL.DD5.1.H264-FGT
Language : English
Default : Yes
Forced : No
Color range : Limited
Color primaries : BT.709
Transfer characteristics : BT.709
Matrix coefficients : BT.709

Audio
ID : 2
Format : AC-3
Format/Info : Audio Coding 3
Commercial name : Dolby Digital
Codec ID : A_AC3
Duration : 1 h 47 min
Bit rate mode : Constant
Bit rate : 384 kb/s
Channel(s) : 6 channels
Channel layout : L R C LFE Ls Rs
Sampling rate : 48.0 kHz
Frame rate : 31.250 FPS (1536 SPF)
Bit depth : 16 bits
Compression mode : Lossy
Stream size : 294 MiB (8%)
Title : Measure.For.Measure.2019.1080p.WEB-DL.DD5.1.H264-FGT
Language : English
Service kind : Complete Main
Default : Yes
Forced : No

Menu
00:00:00.000 : en:1
00:17:59.125 : en:2
00:32:40.291 : en:3
00:53:05.332 : en:4
01:08:59.373 : en:5
01:25:47.123 : en:6
01:43:45.623 : en:7





1 个附件 售价 大小 下载 时间

Measure.For.Measure.2019.1080p.WEB-DL.DD5.1.H264-FGT.torrent 0 金币 37.73K 315 次 1月前

#1楼
发帖时间:2020-05-25 19:12:29   |   回复数:1
911degrees
隐世仙人♂
非常感谢,谢谢分享
1月前 #2楼
游客组