coor
一代宗师

[更 早] [欧美] [剧情] [BD-1080P] 婚之惑/新婚趣史 The.Family.Way.1966.1080p.BluRay.x264-SPOOKS 13.10GB

-->




◎译  名 婚之惑 / 新婚趣史(港)
◎片  名 The Family Way
◎年  代 1966
◎产  地 英国
◎类  别 剧情 / 喜剧 / 爱情
◎语  言 英语
◎上映日期 1966-12-18
◎IMDb评分 7.3/10 from 1253 users
◎IMDb链接 https://www.imdb.com/title/tt0060395
◎豆瓣评分 0/10 from 0 users
◎豆瓣链接 https://movie.douban.com/subject/1951030/
◎片  长 115 分钟
◎导  演 Roy Boulting
◎编  剧 比尔·诺顿 Bill Naughton
◎主  演 Hayley Mills
      Hywel Bennett
      John Mills


◎标  签 英国 | Roy_Boulting | 英国电影 | 新浪潮 | 婚之惑 | 喜剧 | 包子脸的配乐 | 下不到

◎简  介

  When newly-wed Hywel Bennett fails to consummate his marriage, his nervous bride, Hayley Mills, thinks it's her fault. But the root of the problem lies with his bullying father, John Mills, whose presence in the same Lancashire household has an inhibiting effect on his shy, sensitive son.
Video
ID : 1
Format : AVC
Format/Info : Advanced Video Codec
Format profile : [email protected]
Format settings : CABAC / 4 Ref Frames
Format settings, CABAC : Yes
Format settings, Reference frames : 4 frames
Codec ID : V_MPEG4/ISO/AVC
Duration : 1 h 55 min
Bit rate : 15.8 Mb/s
Width : 1 800 pixels
Height : 1 080 pixels
Display aspect ratio : 5:3
Frame rate mode : Constant
Frame rate : 24.000 FPS
Color space : YUV
Chroma subsampling : 4:2:0
Bit depth : 8 bits
Scan type : Progressive
Bits/(Pixel*Frame) : 0.340
Stream size : 12.8 GiB (98%)
Writing library : x264 core 160 r3000 33f9e14
Encoding settings : cabac=1 / ref=4 / deblock=1:-3:-3 / analyse=0x3:0x133 / me=umh / subme=10 / psy=1 / psy_rd=1.50:0.15 / mixed_ref=1 / me_range=24 / chroma_me=1 / trellis=2 / 8x8dct=1 / cqm=0 / deadzone=21,11 / fast_pskip=0 / chroma_qp_offset=-3 / threads=24 / lookahead_threads=4 / sliced_threads=0 / nr=0 / decimate=0 / interlaced=0 / bluray_compat=0 / constrained_intra=0 / bframes=8 / b_pyramid=2 / b_adapt=2 / b_bias=0 / direct=3 / weightb=1 / open_gop=0 / weightp=2 / keyint=250 / keyint_min=24 / scenecut=40 / intra_refresh=0 / rc=crf / mbtree=0 / crf=18.2 / qcomp=0.60 / qpmin=0 / qpmax=69 / qpstep=4 / ip_ratio=1.40 / pb_ratio=1.30 / aq=3:0.50
Default : Yes
Forced : No
Color range : Limited
Matrix coefficients : BT.709

Audio
ID : 2
Format : FLAC
Format/Info : Free Lossless Audio Codec
Codec ID : A_FLAC
Duration : 1 h 55 min
Bit rate mode : Variable
Bit rate : 327 kb/s
Channel(s) : 2 channels
Channel layout : L R
Sampling rate : 48.0 kHz
Frame rate : 11.719 FPS (4096 SPF)
Bit depth : 16 bits
Compression mode : Lossless
Stream size : 270 MiB (2%)
Writing library : libFLAC 1.3.2 (UTC 2017-01-01)
Language : English
Default : Yes
Forced : No

Text
ID : 3
Format : PGS
Muxing mode : zlib
Codec ID : S_HDMV/PGS
Codec ID/Info : Picture based subtitle format used on BDs/HD-DVDs
Duration : 1 h 53 min
Bit rate : 56.3 kb/s
Count of elements : 3554
Stream size : 45.7 MiB (0%)
Language : English
Default : No
Forced : No

Menu
00:00:00.000 : en:Chapter 01
00:06:05.167 : en:Chapter 02
00:15:27.708 : en:Chapter 03
00:25:39.833 : en:Chapter 04
00:32:31.333 : en:Chapter 05
00:42:28.417 : en:Chapter 06
00:50:36.750 : en:Chapter 07
00:58:29.333 : en:Chapter 08
01:10:53.208 : en:Chapter 09
01:23:12.333 : en:Chapter 10
01:37:14.000 : en:Chapter 11
01:48:17.625 : en:Chapter 12





1 个附件 售价 大小 下载 时间

The.Family.Way.1966.1080p.BluRay.x264-SPOOKS.torrent 0 金币 66.13K 280 次 1月前

#1楼
发帖时间:2020-05-25 20:19:24   |   回复数:1
911degrees
隐世仙人♂
非常感谢,谢谢分享
1月前 #2楼
游客组