coor
一代宗师

[更 早] [其他] [剧情] [BD-720P] 柔道龙虎榜 Throw.Down.2004.720p.BluRay.x264-GHOULS 7.05GB

-->




◎译  名 Throw Down
◎片  名 柔道龙虎榜
◎年  代 2004
◎产  地 中国香港
◎类  别 剧情 / 动作
◎语  言 粤语 / 普通话
◎上映日期 2004-07-08(中国香港)
◎IMDb评分 6.8/10 from 1363 users
◎IMDb链接 https://www.imdb.com/title/tt0415380
◎豆瓣评分 7.5/10 from 24583 users
◎豆瓣链接 https://movie.douban.com/subject/1308796/
◎片  长 95 分钟
◎导  演 杜琪峰 Johnnie To
◎编  剧 欧健儿 Kin-Yee Au / 游乃海 Nai-Hoi Yau / 叶天成 Tin-Shing Yip
◎主  演 古天乐 Louis Koo
      郭富城 Aaron Kwok
      应采儿 Cherrie Ying
      梁家辉 Tony Leung Ka Fai
      陈小春 Jordan Chan
      张兆辉 Siu-Fai Cheung
      蔡一智 Calvin Choi
      卢海鹏 Hoi-Pang Lo
      高捷 Jack Kao
      黄华和 Wan Woo Wong
      元彬 Bun Yuen


◎标  签 杜琪峰 | 香港 | 银河映像 | 古天乐 | 香港电影 | 动作 | 郭富城 | 梁家辉

◎简  介

  曾经号称“柔道小金刚”的司徒宝(古天乐饰),曾是一名高手,如今放弃了柔道,已沦落成债务缠身、嗜赌酗酒的堕落混混。
  新一届的柔道冠军Tony(郭富城饰)慕名而来,直指司徒宝挑战,试图一较高下。宿敌辣手李阿刚(梁家辉饰)又因当年一场未完的比赛,也找上门来要和司徒宝决一雌雄。
  结果Tony和司徒宝成为好友,台湾来的靓女小梦(应采儿饰)一心想当歌星,却险遭暗算,为实现理想屡吃尽苦头的也希望司徒宝能重燃斗志,但真正令其发愤的却是年迈师傅(卢海鹏饰)的战死。
  到底是有什么隐痛让司徒宝自甘沉沦?重寻对柔道信心和热爱的他,是否能够打败对手?

◎获奖情况

  第41届台北金马影展(2004)
  金马奖 最佳男配角(提名) 张兆辉
  金马奖 最佳原著剧本 欧健儿 / 游乃海 / 叶天成

  第24届香港电影金像奖(2005)
  最佳动作设计(提名) 元彬

  第5届华语电影传媒大奖(2005)
  最佳电影(提名)
  最佳导演(提名) 杜琪峰
  最佳男配角 张兆辉
  最佳男配角(提名) 梁家辉
Video
ID : 1
Format : AVC
Format/Info : Advanced Video Codec
Format profile : [email protected]
Format settings : CABAC / 12 Ref Frames
Format settings, CABAC : Yes
Format settings, Reference frames : 12 frames
Codec ID : V_MPEG4/ISO/AVC
Duration : 1 h 35 min
Bit rate : 8 448 kb/s
Width : 1 280 pixels
Height : 544 pixels
Display aspect ratio : 2.35:1
Frame rate mode : Constant
Frame rate : 23.976 (24000/1001/189150) FPS
Color space : YUV
Chroma subsampling : 4:2:0
Bit depth : 8 bits
Scan type : Progressive
Bits/(Pixel*Frame) : 0.506
Stream size : 5.65 GiB (80%)
Writing library : x264 core 160 r3000 33f9e14
Encoding settings : cabac=1 / ref=12 / deblock=1:-3:-3 / analyse=0x3:0x133 / me=umh / subme=10 / psy=1 / psy_rd=1.20:0.00 / mixed_ref=1 / me_range=24 / chroma_me=1 / trellis=2 / 8x8dct=1 / cqm=0 / deadzone=21,11 / fast_pskip=0 / chroma_qp_offset=-2 / threads=17 / lookahead_threads=2 / sliced_threads=0 / nr=0 / decimate=0 / interlaced=0 / bluray_compat=0 / constrained_intra=0 / bframes=8 / b_pyramid=2 / b_adapt=2 / b_bias=0 / direct=3 / weightb=1 / open_gop=0 / weightp=2 / keyint=250 / keyint_min=23 / scenecut=40 / intra_refresh=0 / rc=crf / mbtree=0 / crf=16.0 / qcomp=0.60 / qpmin=0 / qpmax=69 / qpstep=4 / ip_ratio=1.40 / pb_ratio=1.30 / aq=3:0.90
Default : Yes
Forced : No
Color range : Limited
Matrix coefficients : BT.709

Audio #1
ID : 2
Format : FLAC
Format/Info : Free Lossless Audio Codec
Codec ID : A_FLAC
Duration : 1 h 35 min
Bit rate mode : Variable
Bit rate : 1 338 kb/s
Channel(s) : 2 channels
Channel layout : L R
Sampling rate : 48.0 kHz
Frame rate : 11.719 FPS (4096 SPF)
Bit depth : 24 bits
Compression mode : Lossless
Stream size : 916 MiB (13%)
Writing library : libFLAC 1.3.2 (UTC 2017-01-01)
Language : Chinese
Default : Yes
Forced : No

Audio #2
ID : 3
Format : FLAC
Format/Info : Free Lossless Audio Codec
Codec ID : A_FLAC
Duration : 1 h 35 min
Bit rate mode : Variable
Bit rate : 531 kb/s
Channel(s) : 2 channels
Channel layout : L R
Sampling rate : 48.0 kHz
Frame rate : 11.719 FPS (4096 SPF)
Bit depth : 16 bits
Compression mode : Lossless
Stream size : 363 MiB (5%)
Writing library : libFLAC 1.3.2 (UTC 2017-01-01)
Language : English
Default : No
Forced : No

Audio #3
ID : 4
Format : AAC LC
Format/Info : Advanced Audio Codec Low Complexity
Codec ID : A_AAC-2
Duration : 1 h 35 min
Bit rate : 104 kb/s
Channel(s) : 2 channels
Channel layout : L R
Sampling rate : 48.0 kHz
Frame rate : 46.875 FPS (1024 SPF)
Compression mode : Lossy
Delay relative to video : 20 ms
Stream size : 71.1 MiB (1%)
Title : Commentary
Language : English
Default : No
Forced : No

Audio #4
ID : 5
Format : AAC LC
Format/Info : Advanced Audio Codec Low Complexity
Codec ID : A_AAC-2
Duration : 1 h 35 min
Bit rate : 114 kb/s
Channel(s) : 2 channels
Channel layout : L R
Sampling rate : 48.0 kHz
Frame rate : 46.875 FPS (1024 SPF)
Compression mode : Lossy
Delay relative to video : 20 ms
Stream size : 78.0 MiB (1%)
Title : Commentary
Language : English
Default : No
Forced : No

Text #1
ID : 6
Format : UTF-8
Codec ID : S_TEXT/UTF8
Codec ID/Info : UTF-8 Plain Text
Duration : 1 h 30 min
Bit rate : 21 b/s
Count of elements : 558
Stream size : 14.1 KiB (0%)
Title : English (Forced)
Language : English
Default : Yes
Forced : Yes

Text #2
ID : 7
Format : UTF-8
Codec ID : S_TEXT/UTF8
Codec ID/Info : UTF-8 Plain Text
Duration : 1 h 30 min
Bit rate : 1 b/s
Count of elements : 36
Stream size : 1 013 Bytes (0%)
Title : English (Forced)
Language : English
Default : No
Forced : No

Text #3
ID : 8
Format : PGS
Muxing mode : zlib
Codec ID : S_HDMV/PGS
Codec ID/Info : Picture based subtitle format used on BDs/HD-DVDs
Duration : 1 h 30 min
Bit rate : 15.8 kb/s
Count of elements : 1116
Stream size : 10.3 MiB (0%)
Language : English
Default : No
Forced : No

Text #4
ID : 9
Format : PGS
Muxing mode : zlib
Codec ID : S_HDMV/PGS
Codec ID/Info : Picture based subtitle format used on BDs/HD-DVDs
Duration : 1 h 30 min
Bit rate : 1 154 b/s
Count of elements : 72
Stream size : 770 KiB (0%)
Language : English
Default : No
Forced : No

Menu
00:00:00.000 : en:Chapter 01
00:11:13.548 : en:Chapter 02
00:24:01.023 : en:Chapter 03
00:34:09.256 : en:Chapter 04
00:43:39.575 : en:Chapter 05
00:52:14.381 : en:Chapter 06
01:01:49.623 : en:Chapter 07
01:13:31.449 : en:Chapter 08
01:24:45.247 : en:Chapter 09





1 个附件 售价 大小 下载 时间

Throw.Down.2004.720p.BluRay.x264-GHOULS.torrent 0 金币 35.87K 518 次 1月前

#1楼
发帖时间:2020-05-25 20:25:25   |   回复数:3
911degrees
隐世仙人♂
非常感谢,谢谢分享
1月前 #2楼
liyouchai
隐世仙人♂
谢谢楼主分享资源
1月前 #3楼
jokingcheung
一代宗师
谢谢分享
1月前 #4楼
游客组