coor
一代宗师

[更 早] [欧美] [剧情] [BD-Remux] 硬汉歌王/浪子歌王 King.Creole.1958.1080p.BluRay.REMUX.AVC.TrueHD.5.1-FGT 29.78GB

-->




◎译  名 硬汉歌王 / 浪子歌王
◎片  名 King Creole
◎年  代 1958
◎产  地 美国
◎类  别 剧情 / 歌舞 / 犯罪
◎语  言 英语
◎上映日期 1958-07-02
◎IMDb评分 7.0/10 from 4240 users
◎IMDb链接 https://www.imdb.com/title/tt0051818
◎豆瓣评分 0/10 from 0 users
◎豆瓣链接 https://movie.douban.com/subject/1299855/
◎片  长 116 分钟
◎导  演 迈克尔·柯蒂斯 Michael Curtiz
◎编  剧 Herbert Baker / Michael V. Gazzo
◎主  演 猫王 Elvis Presley
      Carolyn Jones
      Walter Matthau


◎标  签 美国 | 迈克尔·柯蒂斯 | 歌舞 | 黑色电影 | 青春 | ElvisPresley | 50s | 1958

◎简  介

  本片由《卡萨布兰卡》导演迈克尔·柯蒂斯执导,改编自小说A Stone for Danny Fisher,影片讲述了由猫王饰演的男主角Danny违背父亲意愿,执意当歌手,又意外得罪了黑帮而发生的一系列故事,被视为猫王最出色的电影作品,也是猫王本人最钟意的一次表演。
Video
ID : 1
ID in the original source medium : 4113 (0x1011)
Format : AVC
Format/Info : Advanced Video Codec
Format profile : [email protected]
Format settings : CABAC / 4 Ref Frames
Format settings, CABAC : Yes
Format settings, Reference frames : 4 frames
Codec ID : V_MPEG4/ISO/AVC
Duration : 1 h 55 min
Bit rate mode : Variable
Bit rate : 31.8 Mb/s
Maximum bit rate : 36.0 Mb/s
Width : 1 920 pixels
Height : 1 080 pixels
Display aspect ratio : 16:9
Frame rate mode : Constant
Frame rate : 23.976 (24000/1001/189150) FPS
Color space : YUV
Chroma subsampling : 4:2:0
Bit depth : 8 bits
Scan type : Progressive
Bits/(Pixel*Frame) : 0.641
Stream size : 25.7 GiB (86%)
Title : King.Creole.1958.1080p.BluRay.REMUX.AVC.TrueHD.5.1-FGT
Language : English
Default : No
Forced : No
Original source medium : Blu-ray

Audio #1
ID : 2
ID in the original source medium : 4352 (0x1100)
Format : MLP FBA
Format/Info : Meridian Lossless Packing FBA
Commercial name : Dolby TrueHD
Codec ID : A_TRUEHD
Duration : 1 h 55 min
Bit rate mode : Variable
Bit rate : 3 102 kb/s
Maximum bit rate : 4 197 kb/s
Channel(s) : 6 channels
Channel layout : L R C LFE Ls Rs
Sampling rate : 48.0 kHz
Frame rate : 1 200.000 FPS (40 SPF)
Compression mode : Lossless
Stream size : 2.51 GiB (8%)
Title : King.Creole.1958.1080p.BluRay.REMUX.AVC.TrueHD.5.1-FGT
Language : English
Default : Yes
Forced : No
Original source medium : Blu-ray

Audio #2
ID : 3
ID in the original source medium : 4352 (0x1100)
Format : AC-3
Format/Info : Audio Coding 3
Commercial name : Dolby Digital
Codec ID : A_AC3
Duration : 1 h 55 min
Bit rate mode : Constant
Bit rate : 640 kb/s
Channel(s) : 6 channels
Channel layout : L R C LFE Ls Rs
Sampling rate : 48.0 kHz
Frame rate : 31.250 FPS (1536 SPF)
Bit depth : 16 bits
Compression mode : Lossy
Stream size : 529 MiB (2%)
Title : King.Creole.1958.1080p.BluRay.REMUX.AVC.TrueHD.5.1-FGT
Language : English
Service kind : Complete Main
Default : No
Forced : No
Original source medium : Blu-ray

Audio #3
ID : 4
ID in the original source medium : 4353 (0x1101)
Format : AC-3
Format/Info : Audio Coding 3
Commercial name : Dolby Digital
Codec ID : A_AC3
Duration : 1 h 55 min
Bit rate mode : Constant
Bit rate : 224 kb/s
Channel(s) : 2 channels
Channel layout : L R
Sampling rate : 48.0 kHz
Frame rate : 31.250 FPS (1536 SPF)
Bit depth : 16 bits
Compression mode : Lossy
Stream size : 185 MiB (1%)
Title : King.Creole.1958.1080p.BluRay.REMUX.AVC.TrueHD.5.1-FGT
Language : English
Service kind : Complete Main
Default : No
Forced : No
Original source medium : Blu-ray

Audio #4
ID : 5
ID in the original source medium : 4354 (0x1102)
Format : AC-3
Format/Info : Audio Coding 3
Commercial name : Dolby Digital
Codec ID : A_AC3
Duration : 1 h 55 min
Bit rate mode : Constant
Bit rate : 224 kb/s
Channel(s) : 2 channels
Channel layout : L R
Sampling rate : 48.0 kHz
Frame rate : 31.250 FPS (1536 SPF)
Bit depth : 16 bits
Compression mode : Lossy
Stream size : 185 MiB (1%)
Title : King.Creole.1958.1080p.BluRay.REMUX.AVC.TrueHD.5.1-FGT
Language : Spanish
Service kind : Complete Main
Default : No
Forced : No
Original source medium : Blu-ray

Audio #5
ID : 6
ID in the original source medium : 4355 (0x1103)
Format : AC-3
Format/Info : Audio Coding 3
Commercial name : Dolby Digital
Codec ID : A_AC3
Duration : 1 h 55 min
Bit rate mode : Constant
Bit rate : 224 kb/s
Channel(s) : 2 channels
Channel layout : L R
Sampling rate : 48.0 kHz
Frame rate : 31.250 FPS (1536 SPF)
Bit depth : 16 bits
Compression mode : Lossy
Stream size : 185 MiB (1%)
Title : King.Creole.1958.1080p.BluRay.REMUX.AVC.TrueHD.5.1-FGT
Language : French
Service kind : Complete Main
Default : No
Forced : No
Original source medium : Blu-ray

Audio #6
ID : 7
ID in the original source medium : 4356 (0x1104)
Format : AC-3
Format/Info : Audio Coding 3
Commercial name : Dolby Digital
Codec ID : A_AC3
Duration : 1 h 55 min
Bit rate mode : Constant
Bit rate : 224 kb/s
Channel(s) : 2 channels
Channel layout : L R
Sampling rate : 48.0 kHz
Frame rate : 31.250 FPS (1536 SPF)
Bit depth : 16 bits
Compression mode : Lossy
Stream size : 185 MiB (1%)
Title : King.Creole.1958.1080p.BluRay.REMUX.AVC.TrueHD.5.1-FGT
Language : Italian
Service kind : Complete Main
Default : No
Forced : No
Original source medium : Blu-ray

Audio #7
ID : 8
ID in the original source medium : 4357 (0x1105)
Format : AC-3
Format/Info : Audio Coding 3
Commercial name : Dolby Digital
Codec ID : A_AC3
Duration : 1 h 55 min
Bit rate mode : Constant
Bit rate : 224 kb/s
Channel(s) : 2 channels
Channel layout : L R
Sampling rate : 48.0 kHz
Frame rate : 31.250 FPS (1536 SPF)
Bit depth : 16 bits
Compression mode : Lossy
Stream size : 185 MiB (1%)
Title : King.Creole.1958.1080p.BluRay.REMUX.AVC.TrueHD.5.1-FGT
Language : German
Service kind : Complete Main
Default : No
Forced : No
Original source medium : Blu-ray

Text #1
ID : 9
ID in the original source medium : 4608 (0x1200)
Format : PGS
Muxing mode : zlib
Codec ID : S_HDMV/PGS
Codec ID/Info : Picture based subtitle format used on BDs/HD-DVDs
Duration : 1 h 48 min
Bit rate : 34.8 kb/s
Count of elements : 2110
Stream size : 27.1 MiB (0%)
Title : English-PGS
Language : English
Default : No
Forced : No
Original source medium : Blu-ray

Text #2
ID : 10
ID in the original source medium : 4609 (0x1201)
Format : PGS
Muxing mode : zlib
Codec ID : S_HDMV/PGS
Codec ID/Info : Picture based subtitle format used on BDs/HD-DVDs
Duration : 1 h 55 min
Bit rate : 49.6 kb/s
Count of elements : 2781
Stream size : 40.8 MiB (0%)
Title : English-SDH-PGS
Language : English
Default : No
Forced : No
Original source medium : Blu-ray

Text #3
ID : 11
ID in the original source medium : 4610 (0x1202)
Format : PGS
Muxing mode : zlib
Codec ID : S_HDMV/PGS
Codec ID/Info : Picture based subtitle format used on BDs/HD-DVDs
Duration : 1 h 55 min
Bit rate : 37.6 kb/s
Count of elements : 2630
Stream size : 31.1 MiB (0%)
Title : Spanish-PGS
Language : Spanish
Default : No
Forced : No
Original source medium : Blu-ray

Text #4
ID : 12
ID in the original source medium : 4611 (0x1203)
Format : PGS
Muxing mode : zlib
Codec ID : S_HDMV/PGS
Codec ID/Info : Picture based subtitle format used on BDs/HD-DVDs
Duration : 1 h 51 min
Bit rate : 30.6 kb/s
Count of elements : 2114
Stream size : 24.5 MiB (0%)
Title : French-PGS
Language : French
Default : No
Forced : No
Original source medium : Blu-ray

Text #5
ID : 13
ID in the original source medium : 4611 (0x1203)
Format : PGS
Muxing mode : zlib
Codec ID : S_HDMV/PGS
Codec ID/Info : Picture based subtitle format used on BDs/HD-DVDs
Duration : 7 s 362 ms
Bit rate : 51.5 kb/s
Count of elements : 4
Stream size : 46.3 KiB (0%)
Title : French-FORCED-PGS
Language : French
Default : No
Forced : No
Original source medium : Blu-ray

Text #6
ID : 14
ID in the original source medium : 4612 (0x1204)
Format : PGS
Muxing mode : zlib
Codec ID : S_HDMV/PGS
Codec ID/Info : Picture based subtitle format used on BDs/HD-DVDs
Duration : 1 h 55 min
Bit rate : 38.1 kb/s
Count of elements : 2730
Stream size : 31.4 MiB (0%)
Title : Italian-PGS
Language : Italian
Default : No
Forced : No
Original source medium : Blu-ray

Text #7
ID : 15
ID in the original source medium : 4612 (0x1204)
Format : PGS
Muxing mode : zlib
Codec ID : S_HDMV/PGS
Codec ID/Info : Picture based subtitle format used on BDs/HD-DVDs
Duration : 18 min 24 s
Bit rate : 5 052 b/s
Count of elements : 58
Stream size : 681 KiB (0%)
Title : Italian-FORCED-PGS
Language : Italian
Default : No
Forced : No
Original source medium : Blu-ray

Text #8
ID : 16
ID in the original source medium : 4613 (0x1205)
Format : PGS
Muxing mode : zlib
Codec ID : S_HDMV/PGS
Codec ID/Info : Picture based subtitle format used on BDs/HD-DVDs
Duration : 1 h 48 min
Bit rate : 37.0 kb/s
Count of elements : 2114
Stream size : 28.8 MiB (0%)
Title : German-PGS
Language : German
Default : No
Forced : No
Original source medium : Blu-ray

Text #9
ID : 17
ID in the original source medium : 4613 (0x1205)
Format : PGS
Muxing mode : zlib
Codec ID : S_HDMV/PGS
Codec ID/Info : Picture based subtitle format used on BDs/HD-DVDs
Duration : 8 s 29 ms
Bit rate : 61.7 kb/s
Count of elements : 4
Stream size : 60.5 KiB (0%)
Title : German-FORCED-PGS
Language : German
Default : No
Forced : No
Original source medium : Blu-ray

Menu
00:00:00.000 : en:Chapter 01
00:02:22.392 : en:Chapter 02
00:04:46.244 : en:Chapter 03
00:07:16.018 : en:Chapter 04
00:09:13.469 : en:Chapter 05
00:10:39.972 : en:Chapter 06
00:11:49.125 : en:Chapter 07
00:14:09.431 : en:Chapter 08
00:17:25.794 : en:Chapter 09
00:19:13.944 : en:Chapter 10
00:22:47.032 : en:Chapter 11
00:23:36.623 : en:Chapter 12
00:26:52.110 : en:Chapter 13
00:28:05.225 : en:Chapter 14
00:31:12.328 : en:Chapter 15
00:35:20.326 : en:Chapter 16
00:36:34.984 : en:Chapter 17
00:40:56.829 : en:Chapter 18
00:42:54.238 : en:Chapter 19
00:50:34.197 : en:Chapter 20
00:53:40.342 : en:Chapter 21
00:55:53.975 : en:Chapter 22
00:59:06.793 : en:Chapter 23
01:01:28.476 : en:Chapter 24
01:08:19.303 : en:Chapter 25
01:11:38.877 : en:Chapter 26
01:17:14.046 : en:Chapter 27
01:20:20.899 : en:Chapter 28
01:30:28.881 : en:Chapter 29
01:34:08.643 : en:Chapter 30
01:36:00.212 : en:Chapter 31
01:39:48.399 : en:Chapter 32
01:46:31.176 : en:Chapter 33
01:50:27.746 : en:Chapter 34
01:52:22.819 : en:Chapter 35





1 个附件 售价 大小 下载 时间

King.Creole.1958.1080p.BluRay.REMUX.AVC.TrueHD.5.1-FGT.torrent 0 金币 75.00K 231 次 1月前

#1楼
发帖时间:2020-05-25 20:39:50   |   回复数:1
911degrees
隐世仙人♂
非常感谢,谢谢分享
1月前 #2楼
游客组