coor
一代宗师

[2015] [欧美] [恐怖] [BD-1080P] 空心 The.Hollow.2015.1080p.BluRay.x264.DTS-FGT 5.78GB

-->



◎译  名 空心
◎片  名 The Hollow
◎年  代 2015
◎产  地 美国
◎类  别 恐怖
◎语  言 英语
◎上映日期 2015-10-24
◎IMDb评分 3.6/10 from 1728 users
◎IMDb链接 https://www.imdb.com/title/tt4472596
◎豆瓣评分 3.4/10 from 100 users
◎豆瓣链接 https://movie.douban.com/subject/26651006/
◎片  长 85分钟
◎导  演 Sheldon Wilson
◎编  剧 Rick Suvalle / Sheldon Wilson
◎主  演 Stephanie Hunt
      Sarah Dugdale
      Alisha Newton


◎标  签 恐怖 | 惊悚 | 美国 | 灵异 | 美国电影 | 2015 | 烂片 | 人物是够弱的。

◎简  介

  It's Halloween eve on Shelter Island, and the small town is preparing for a killer storm. But the dark clouds gathering over the island are bringing with them a curse one-hundred years in waiting. As the woods give birth to an ungodly and insatiable creature of fire, bones, and earth, three sisters must scramble to stay alive through the long dark night of the Hollow. For it's not something you can kill. It's only something you can try and survive.
  - Written by Anonymous
Video
ID : 1
Format : AVC
Format/Info : Advanced Video Codec
Format profile : [email protected]
Format settings, CABAC : Yes
Format settings, ReFrames : 4 frames
Codec ID : V_MPEG4/ISO/AVC
Duration : 1h 25mn
Bit rate : 8 002 Kbps
Width : 1 920 pixels
Height : 1 080 pixels
Display aspect ratio : 16:9
Frame rate mode : Constant
Frame rate : 23.976 (24000/1001) fps
Color space : YUV
Chroma subsampling : 4:2:0
Bit depth : 8 bits
Scan type : Progressive
Bits/(Pixel*Frame) : 0.161
Stream size : 4.77 GiB (82%)
Writing library : x264 core 148 r2705 3f5ed56
Encoding settings : cabac=1 / ref=4 / deblock=1:-3:-3 / analyse=0x3:0x113 / me=umh / subme=8 / psy=1 / psy_rd=1.00:0.15 / mixed_ref=1 / me_range=16 / chroma_me=1 / trellis=1 / 8x8dct=1 / cqm=0 / deadzone=21,11 / fast_pskip=0 / chroma_qp_offset=-3 / threads=6 / lookahead_threads=1 / sliced_threads=0 / nr=0 / decimate=1 / interlaced=0 / bluray_compat=0 / constrained_intra=0 / bframes=3 / b_pyramid=2 / b_adapt=2 / b_bias=0 / direct=3 / weightb=1 / open_gop=0 / weightp=2 / keyint=240 / keyint_min=24 / scenecut=40 / intra_refresh=0 / rc_lookahead=50 / rc=crf / mbtree=1 / crf=20.0 / qcomp=0.60 / qpmin=0 / qpmax=69 / qpstep=4 / ip_ratio=1.40 / aq=1:1.00
Language : English
Default : Yes
Forced : No

Audio
ID : 2
Format : DTS
Format/Info : Digital Theater Systems
Mode : 16
Format settings, Endianness : Big
Codec ID : A_DTS
Duration : 1h 25mn
Bit rate mode : Constant
Bit rate : 1 509 Kbps
Channel(s) : 6 channels
Channel positions : Front: L C R, Side: L R, LFE
Sampling rate : 48.0 KHz
Frame rate : 93.750 fps (512 spf)
Bit depth : 24 bits
Compression mode : Lossy
Stream size : 921 MiB (16%)
Language : English
Default : Yes
Forced : No

Menu
00:00:00.000 : en:00:00:00.000
00:10:26.793 : en:00:10:26.793
00:20:34.358 : en:00:20:34.358
00:32:35.537 : en:00:32:35.537
00:39:39.168 : en:00:39:39.168
00:49:42.605 : en:00:49:42.605
00:59:21.224 : en:00:59:21.224
01:08:34.610 : en:01:08:34.610
01:17:03.494 : en:01:17:03.494
01:24:30.691 : en:01:24:30.691





1 个附件 售价 大小 下载 时间

The.Hollow.2015.1080p.BluRay.x264.DTS-FGT.torrent 0 金币 58.41K 168 次 7天前

#1楼
发帖时间:2020-06-30 21:07:17   |   回复数:2
chulps
一代宗师
~ 珍惜+支持 ~
7天前 #2楼
911degrees
隐世仙人♂
非常感谢,谢谢分享
7天前 #3楼
游客组