coor
一代宗师

[更 早] [欧美] [喜剧] [BD-1080P] 气球上的五星期 Five.Weeks.in.a.Balloon.1962.1080p.BluRay.x264.DTS-FGT 5.74GB

-->



◎译  名 气球上的五星期
◎片  名 Five Weeks in a Balloon
◎年  代 1962
◎产  地 美国
◎类  别 喜剧 / 爱情 / 冒险
◎语  言 英语
◎上映日期 1962-08-22(美国)
◎IMDb评分 5.8/10 from 1080 users
◎IMDb链接 https://www.imdb.com/title/tt0055988
◎豆瓣评分 7.6/10 from 432 users
◎豆瓣链接 https://movie.douban.com/subject/1844736/
◎片  长 101 分钟
◎导  演 伊尔温·艾伦 Irwin Allen
◎编  剧 儒勒·凡尔纳 Jules Verne / 查尔斯·贝内特 Charles Bennett / 伊尔温·艾伦 Irwin Allen / Albert Gail
◎主  演 莱德·巴顿斯 Red Buttons
      芭芭拉·伊登 Barbara Eden
      Barbara Luna
      塞德里克·哈德威克 Cedric Hardwicke
      彼得·洛 Peter Lorre
      理查德·海顿 Richard Haydn


◎标  签 科幻 | 美国 | 喜剧 | 美国电影 | 凡尔纳 | 正大剧场 | 冒险 | 童年

◎简  介

  【简介】
  弗格森教授计划通过乘坐气球穿越非洲使其成为航空史上的里程碑。 他声称可以作为证明发明是他的私有财产的的证据在未知领土西非上面,众人开始了一段惊心动魄的旅行!
  【小说】
  《气球上的五星期》是作者儒勒·凡尔纳的第一部科幻小说,讲述的是19世纪上半叶,许多探险家、地理学家、旅行家虽然对非洲进行了艰难而卓绝的探险,留下了许多珍贵的资料和地图,却始终无法探明东经14°与33°之间的非洲地区;此时,英国旅行家塞缪尔·弗格森决定核实前人探险的成果,对非洲这个地区进行考察。虽然遭到众人的怀疑,他还是伙同他的朋友肯尼迪和他的仆人乔从非洲的桑给巴尔出发,乘坐他自行设计的热气球,向北一路经历了无数艰难险阻,最后终于到达了法国驻塞内加尔河的属地,从而完成了前人未竟的事业,打破了众人的猜测和疑惑。 书中对非洲大陆的风景描写十分生动细腻,高山大海、沼泽洼地、沙漠河流,还有火山等热带地貌在小说中全部都有所涉及;猴面包树、无花果树、金合欢树、罗望子树等热带植物真是千奇百怪;大象、河马、鳄鱼、秃鹫、豹子、鬣狗等热带动物应有尽有,还有与野人、猴子斗智斗勇的惊心动魄的场面,这些都不禁使人浮想联翩,产生去非洲冒险旅行的冲动。 热气球是他们乘坐的交通工具,即使对今天的中国读者来说,它也是一个比较陌生的事物,而书中主人公早在19世纪上半叶已经想到了用它来当做探险的工具,更有趣的是,作者连气球的复杂结构也通过主人公详细地介绍给了读者,可见该书作者广博的知识和极其丰富的想像力。新奇的交通工具加上美丽的风景增添了该书的趣味性。 书中也体现了人与人之间的友谊和关怀:三位旅行家曾经不顾生命危险救了一位法国传教士;当气球快要坠入乍得湖的时候,为了让气球再次升起来,乔奋不顾身地跳入湖中,挽救了两位同伴的性命;而当乔在撒哈拉大沙漠逃命的时候,肯尼迪的一枪也将乔从野蛮民族那里挽救了回来。这种互爱互助的精神在当今个性张扬的时代是非常值得我们珍惜和发扬的。
Video
ID : 1
Format : AVC
Format/Info : Advanced Video Codec
Format profile : [email protected]
Format settings, CABAC : Yes
Format settings, ReFrames : 5 frames
Codec ID : V_MPEG4/ISO/AVC
Duration : 1h 41mn
Bit rate : 7 160 Kbps
Width : 1 920 pixels
Height : 816 pixels
Display aspect ratio : 2.35:1
Frame rate mode : Constant
Frame rate : 23.976 (24000/1001) fps
Color space : YUV
Chroma subsampling : 4:2:0
Bit depth : 8 bits
Scan type : Progressive
Bits/(Pixel*Frame) : 0.191
Stream size : 5.08 GiB (89%)
Writing library : x264 core 148 r2705 3f5ed56
Encoding settings : cabac=1 / ref=5 / deblock=1:-1:-1 / analyse=0x3:0x133 / me=umh / subme=7 / psy=1 / psy_rd=1.00:0.15 / mixed_ref=1 / me_range=16 / chroma_me=1 / trellis=1 / 8x8dct=1 / cqm=0 / deadzone=21,11 / fast_pskip=0 / chroma_qp_offset=-3 / threads=25 / lookahead_threads=4 / sliced_threads=0 / nr=0 / decimate=1 / interlaced=0 / bluray_compat=0 / constrained_intra=0 / bframes=3 / b_pyramid=2 / b_adapt=1 / b_bias=0 / direct=3 / weightb=1 / open_gop=0 / weightp=2 / keyint=240 / keyint_min=23 / scenecut=40 / intra_refresh=0 / rc_lookahead=50 / rc=crf / mbtree=1 / crf=20.0 / qcomp=0.60 / qpmin=10 / qpmax=51 / qpstep=4 / ip_ratio=1.40 / aq=1:1.00
Language : English
Default : Yes
Forced : No

Audio
ID : 2
Format : DTS
Format/Info : Digital Theater Systems
Mode : 16
Format settings, Endianness : Big
Codec ID : A_DTS
Duration : 1h 41mn
Bit rate mode : Constant
Bit rate : 768 Kbps
Channel(s) : 2 channels
Channel positions : Front: L R
Sampling rate : 48.0 KHz
Frame rate : 93.750 fps (512 spf)
Bit depth : 24 bits
Compression mode : Lossy
Stream size : 558 MiB (9%)
Language : English
Default : No
Forced : No





1 个附件 售价 大小 下载 时间

Five.Weeks.in.a.Balloon.1962.1080p.BluRay.x264.DTS-FGT.torrent 0 金币 58.00K 315 次 7天前

#1楼
发帖时间:2020-06-30 21:29:16   |   回复数:1
911degrees
隐世仙人♂
非常感谢,谢谢分享
7天前 #2楼
游客组