coor
一代宗师

[2013] [欧美] [恐怖] [BD-1080P] 鬼鲨 Ghost.Shark.2013.1080p.BluRay.x264.DD5.1-FGT 4.95GB

-->



◎译  名 鬼鲨
◎片  名 Ghost Shark
◎年  代 2013
◎产  地 美国
◎类  别 恐怖
◎语  言 英语
◎上映日期 2013-08-22
◎IMDb评分 3.3/10 from 2698 users
◎IMDb链接 https://www.imdb.com/title/tt2600742
◎豆瓣评分 3.3/10 from 360 users
◎豆瓣链接 https://movie.douban.com/subject/24877008/
◎片  长 84分钟
◎导  演 格里夫·弗斯特 Griff Furst
◎编  剧 格里夫·弗斯特 Griff Furst / Paul A. Birkett
◎主  演 Mackenzie Rosman
      Dave Randolph-Mayhem Davis
      Amy Brassette
      Sloane Coe
      Kim Collins


◎标  签 恐怖 | 美国 | 惊悚 | 烂片 | 鬼鲨 | 2013 | 美国电影 | 我看过的惊悚电影

◎简  介

  粗鲁蛮横的博贝克(金·科林斯 Kim Collins 饰)和女儿维多利亚(Amy Brassette 饰)参加钓鱼大赛,谁知到手的鱼儿却被一条白鲨吃掉。博贝克勃然大怒,竟然用炸药对付鲨鱼,结果父女引来了可怕的杀身之祸,连驾驶游艇的船长也无法幸免。次日,爱娃(Mackenzie Rosman 饰)、卡梅隆(Jaren Mitchell 饰)、米克(Shawn C. Phillips 饰)、布雷西(Dave Randolph-Mayhem Davis 饰)等几名年轻人来海边玩耍,可在欢乐之时一条全身散发荧光的鲨鱼向人们发起猛烈攻击。原来鲨鱼也有憎恶怨恨之心,昨晚的鲨鱼虽被博贝克炸死,但它的怨念使它化身为复仇的鬼鲨鱼,向所有人类展开报复。
  而这一切的背后,又藏着不可告人的秘密……
Video
ID : 1
Format : AVC
Format/Info : Advanced Video Codec
Format profile : [email protected]
Format settings, CABAC : Yes
Format settings, ReFrames : 4 frames
Codec ID : V_MPEG4/ISO/AVC
Duration : 1h 27mn
Bit rate : 7 527 Kbps
Width : 1 920 pixels
Height : 1 080 pixels
Display aspect ratio : 16:9
Frame rate mode : Constant
Frame rate : 23.976 (24000/1001) fps
Color space : YUV
Chroma subsampling : 4:2:0
Bit depth : 8 bits
Scan type : Progressive
Bits/(Pixel*Frame) : 0.151
Stream size : 4.58 GiB (93%)
Writing library : x264 core 138 r2358 9e941d1
Encoding settings : cabac=1 / ref=4 / deblock=1:-1:-1 / analyse=0x3:0x133 / me=umh / subme=7 / psy=1 / psy_rd=1.00:0.15 / mixed_ref=1 / me_range=16 / chroma_me=1 / trellis=1 / 8x8dct=1 / cqm=0 / deadzone=21,11 / fast_pskip=0 / chroma_qp_offset=-3 / threads=18 / lookahead_threads=3 / sliced_threads=0 / nr=0 / decimate=1 / interlaced=0 / bluray_compat=0 / constrained_intra=0 / bframes=3 / b_pyramid=2 / b_adapt=1 / b_bias=0 / direct=1 / weightb=1 / open_gop=0 / weightp=2 / keyint=250 / keyint_min=23 / scenecut=40 / intra_refresh=0 / rc_lookahead=40 / rc=crf / mbtree=1 / crf=20.0 / qcomp=0.60 / qpmin=0 / qpmax=69 / qpstep=4 / ip_ratio=1.40 / aq=1:1.00
Default : Yes
Forced : No

Audio
ID : 2
Format : AC-3
Format/Info : Audio Coding 3
Mode extension : CM (complete main)
Format settings, Endianness : Big
Codec ID : A_AC3
Duration : 1h 27mn
Bit rate mode : Constant
Bit rate : 448 Kbps
Channel(s) : 6 channels
Channel positions : Front: L C R, Side: L R, LFE
Sampling rate : 48.0 KHz
Frame rate : 31.250 fps (1536 spf)
Compression mode : Lossy
Stream size : 279 MiB (6%)
Language : English
Default : No
Forced : No





1 个附件 售价 大小 下载 时间

Ghost.Shark.2013.1080p.BluRay.x264.DD5.1-FGT.torrent 0 金币 99.55K 273 次 7天前

#1楼
发帖时间:2020-06-30 21:30:53   |   回复数:1
911degrees
隐世仙人♂
非常感谢,谢谢分享
7天前 #2楼
游客组