coor
一代宗师

[2016] [欧美] [剧情] [BD-1080P] 母与女 Mothers.and.Daughters.2016.1080p.BluRay.x264.DTS-FGT 5.46GB

-->



◎译  名 母与女 / Mothers Day
◎片  名 Mothers and Daughters
◎年  代 2016
◎产  地 美国
◎类  别 剧情
◎语  言 英语
◎上映日期 2016-05-06(美国)
◎IMDb评分 5.0/10 from 2753 users
◎IMDb链接 https://www.imdb.com/title/tt2395339
◎豆瓣评分 5.4/10 from 106 users
◎豆瓣链接 https://movie.douban.com/subject/10755498/
◎片  长 90分钟
◎导  演 Paul Duddridge / Nigel Levy
◎编  剧 Paul Duddridge / Paige Cameron
◎主  演 克里斯蒂娜·里奇 Christina Ricci
      苏珊·萨兰登 Susan Sarandon
      莎朗·斯通 Sharon Stone
      柯特妮·考克斯 Courteney Cox
      卢克·米切尔 Luke Mitchell
      塞尔玛·布莱尔 Selma Blair
      伊娃·阿穆里 Eva Amurri
      米拉·索维诺 Mira Sorvino
      保罗·韦斯利 Paul Wesley
      保罗·安德斯坦 Paul Adelstein
      伊丽莎白·戴利 Elizabeth Daily
      昆东·亚伦 Quinton Aaron
      吉勒·马里尼 Gilles Marini
      娜塔莉·伯恩 Natalie Burn
      克里斯托弗·巴库斯 Christopher Backus


◎标  签 美国 | 2016 | 美国电影 | 电影 | 温情 | 家庭 | 剧情 | SusanSarandon

◎简  介

  Interwoven stories of what it is to be a mom seen through the lens of photographer Rigby Gray.
Video
ID : 1
Format : AVC
Format/Info : Advanced Video Codec
Format profile : [email protected]
Format settings, CABAC : Yes
Format settings, ReFrames : 4 frames
Codec ID : V_MPEG4/ISO/AVC
Duration : 1h 32mn
Bit rate : 6 808 Kbps
Width : 1 920 pixels
Height : 1 080 pixels
Display aspect ratio : 16:9
Frame rate mode : Constant
Frame rate : 23.976 (24000/1001) fps
Color space : YUV
Chroma subsampling : 4:2:0
Bit depth : 8 bits
Scan type : Progressive
Bits/(Pixel*Frame) : 0.137
Stream size : 4.38 GiB (80%)
Writing library : x264 core 148 r2705 3f5ed56
Encoding settings : cabac=1 / ref=4 / deblock=1:-1:-1 / analyse=0x3:0x133 / me=umh / subme=7 / psy=1 / psy_rd=1.00:0.15 / mixed_ref=1 / me_range=16 / chroma_me=1 / trellis=1 / 8x8dct=1 / cqm=0 / deadzone=21,11 / fast_pskip=0 / chroma_qp_offset=-3 / threads=18 / lookahead_threads=3 / sliced_threads=0 / nr=0 / decimate=1 / interlaced=0 / bluray_compat=0 / constrained_intra=0 / bframes=3 / b_pyramid=2 / b_adapt=1 / b_bias=0 / direct=1 / weightb=1 / open_gop=0 / weightp=2 / keyint=250 / keyint_min=23 / scenecut=40 / intra_refresh=0 / rc_lookahead=40 / rc=crf / mbtree=1 / crf=20.0 / qcomp=0.60 / qpmin=0 / qpmax=69 / qpstep=4 / ip_ratio=1.40 / aq=1:1.00
Default : Yes
Forced : No

Audio
ID : 2
Format : DTS
Format/Info : Digital Theater Systems
Mode : 16
Format settings, Endianness : Big
Codec ID : A_DTS
Duration : 1h 32mn
Bit rate mode : Constant
Bit rate : 1 509 Kbps
Channel(s) : 6 channels
Channel positions : Front: L C R, Side: L R, LFE
Sampling rate : 48.0 KHz
Frame rate : 93.750 fps (512 spf)
Bit depth : 24 bits
Compression mode : Lossy
Stream size : 993 MiB (18%)
Language : English
Default : Yes
Forced : No

Menu
00:00:00.000 : en:00:00:00.000
00:11:01.911 : en:00:11:01.911
00:18:34.155 : en:00:18:34.155
00:27:53.130 : en:00:27:53.130
00:38:41.653 : en:00:38:41.653
00:47:58.250 : en:00:47:58.250
00:55:47.970 : en:00:55:47.970
01:02:16.066 : en:01:02:16.066
01:09:20.948 : en:01:09:20.948
01:14:59.537 : en:01:14:59.537
01:23:58.242 : en:01:23:58.242
01:27:15.605 : en:01:27:15.605





1 个附件 售价 大小 下载 时间

Mothers.and.Daughters.2016.1080p.BluRay.x264.DTS-FGT.torrent 0 金币 55.18K 175 次 7天前

#1楼
发帖时间:2020-06-30 22:04:25   |   回复数:1
911degrees
隐世仙人♂
非常感谢,谢谢分享
7天前 #2楼
游客组