coor
一代宗师

[更 早] [欧美] [剧情] [BD-1080P] 猛鹰突击兵团/猛鹰突击队 The.Eagle.Has.Landed.1976.1080p.BluRay.x264.DTS-FGT 11.57GB

-->



◎译  名 猛鹰突击兵团 / 猛鹰突击队 / 猛鹰雄风 / 纳粹16死士 / 鹰已着陆
◎片  名 The Eagle Has Landed
◎年  代 1976
◎产  地 英国
◎类  别 剧情 / 惊悚 / 战争 / 冒险
◎语  言 英语 / 德语 / 波兰语
◎上映日期 1976-12-25
◎IMDb评分 6.9/10 from 18533 users
◎IMDb链接 https://www.imdb.com/title/tt0074452
◎豆瓣评分 7.7/10 from 908 users
◎豆瓣链接 https://movie.douban.com/subject/1298965/
◎片  长 135 分钟
◎导  演 约翰·斯特奇斯 John Sturges
◎编  剧 Jack Higgins / Tom Mankiewicz
◎主  演 迈克尔·凯恩 Michael Caine
      唐纳德·萨瑟兰 Donald Sutherland
      罗伯特·杜瓦尔 Robert Duvall


◎标  签 二战 | 战争 | 英国 | 英国电影 | 纳粹 | 德国 | 1976 | 战争片

◎简  介

  故事发生在1943年9月,邪恶的希特勒(Peter Miles 饰)决定实施一个危险的计划——绑架丘吉尔(Leigh Dilley 饰)。瑞德尔上校(罗伯特·杜瓦尔 Robert Duvall 饰)接受了这个几乎不可能完成的任务,他选择了训练有素的戴福利(唐纳德·萨瑟兰 Donald Sutherland 饰),同科特上校(迈克尔·凯恩 Michael Caine 饰)率领的伞兵队一同出发。
  戴福利和科特潜伏在丘吉尔经常前往的农庄猎场之中,然而,一场意外却暴露了他们的真实身份,一时间,农庄里弥漫着危险而紧张的气氛。一位勇敢的少女将德军来袭的消息通报给了美国驻军,之后,农庄里发生了激烈的战斗,死伤无数。尽管已经殚精竭虑,但科特依然没有放弃自己的计划,然而,等待着他的,只有失败和审判。
Video
ID : 1
Format : AVC
Format/Info : Advanced Video Codec
Format profile : [email protected]
Format settings, CABAC : Yes
Format settings, ReFrames : 4 frames
Codec ID : V_MPEG4/ISO/AVC
Duration : 2h 15mn
Bit rate : 11.5 Mbps
Width : 1 916 pixels
Height : 816 pixels
Display aspect ratio : 2.35:1
Frame rate mode : Constant
Frame rate : 23.976 (24000/1001) fps
Color space : YUV
Chroma subsampling : 4:2:0
Bit depth : 8 bits
Scan type : Progressive
Bits/(Pixel*Frame) : 0.307
Stream size : 10.6 GiB (92%)
Writing library : x264 core 148 r2601 a0cd7d3
Encoding settings : cabac=1 / ref=4 / deblock=1:-2:-2 / analyse=0x3:0x113 / me=umh / subme=7 / psy=1 / psy_rd=1.00:0.15 / mixed_ref=1 / me_range=16 / chroma_me=1 / trellis=1 / 8x8dct=1 / cqm=0 / deadzone=21,11 / fast_pskip=1 / chroma_qp_offset=-3 / threads=40 / lookahead_threads=3 / sliced_threads=0 / nr=0 / decimate=1 / interlaced=0 / bluray_compat=0 / constrained_intra=0 / bframes=3 / b_pyramid=2 / b_adapt=2 / b_bias=0 / direct=3 / weightb=1 / open_gop=0 / weightp=2 / keyint=250 / keyint_min=25 / scenecut=40 / intra_refresh=0 / rc_lookahead=50 / rc=abr / mbtree=1 / bitrate=11500 / ratetol=1.0 / qcomp=0.60 / qpmin=0 / qpmax=69 / qpstep=4 / vbv_maxrate=31250 / vbv_bufsize=31250 / nal_hrd=none / filler=0 / ip_ratio=1.40 / aq=1:1.00
Language : English
Default : Yes
Forced : No

Audio
ID : 2
Format : DTS
Format/Info : Digital Theater Systems
Mode : 16
Format settings, Endianness : Big
Codec ID : A_DTS
Duration : 2h 15mn
Bit rate mode : Constant
Bit rate : 768 Kbps
Channel(s) : 2 channels
Channel positions : Front: L R
Sampling rate : 48.0 KHz
Frame rate : 93.750 fps (512 spf)
Bit depth : 16 bits
Compression mode : Lossy
Stream size : 746 MiB (6%)
Language : English
Default : Yes
Forced : No

Menu
00:00:00.000 : en:Chapter 01
00:03:00.346 : en:Chapter 02
00:16:15.516 : en:Chapter 03
00:27:15.050 : en:Chapter 04
00:40:21.669 : en:Chapter 05
00:54:44.990 : en:Chapter 06
01:02:18.985 : en:Chapter 07
01:20:48.718 : en:Chapter 08
01:31:14.343 : en:Chapter 09
01:42:42.281 : en:Chapter 10
01:56:26.938 : en:Chapter 11
02:08:22.611 : en:Chapter 12





1 个附件 售价 大小 下载 时间

The.Eagle.Has.Landed.1976.1080p.BluRay.x264.DTS-FGT.torrent 0 金币 58.44K 434 次 7天前

#1楼
发帖时间:2020-06-30 22:06:38   |   回复数:1
911degrees
隐世仙人♂
非常感谢,谢谢分享
7天前 #2楼
游客组