coor
一代宗师

[2009] [其他] [其他] [BD-1080P] 圣诞巴迪/圣诞狗狗 Santa.Buddies.2009.1080p.BluRay.x264.DTS-FGT 7.74GB

-->



◎译  名 圣诞巴迪 / 圣诞狗狗
◎片  名 Santa Buddies
◎年  代 2009
◎产  地 美国 / 加拿大
◎类  别 家庭 / 冒险
◎语  言 英语
◎上映日期 2009-11-24(美国)
◎IMDb评分 4.7/10 from 2289 users
◎IMDb链接 https://www.imdb.com/title/tt1328875
◎豆瓣评分 7.2/10 from 1777 users
◎豆瓣链接 https://movie.douban.com/subject/3305733/
◎片  长 88 分钟
◎导  演 Robert Vince
◎编  剧 Anna McRoberts / Robert Vince

◎标  签 狗狗 | 圣诞 | 美国 | 喜剧 | 美国电影 | 动物 | 2009 | 电影

◎简  介

  圣诞狗狗Puppy Paws想要圣诞节消失,因为它只想要做一只普通的小狗。它偷偷溜到外面的世界,并且找到了顽皮小狗名单上Budderball。在Budderball的介绍下,它认识了其他几位顽皮狗朋友。圣诞冰柱快速融化,储存在冰水晶里的圣诞魔法在慢慢的消失,Puppy Paws的出走加速了这一过程,圣诞节因此岌岌可危。Puppy Paws被捕狗人抓走关在动物拘留所,在那里它认识了小狗Tiny,从而懂得了圣诞节的重要性,也明白了自己肩负的责任。此时,圣诞狗精灵和圣诞精灵正在四处寻找Puppy Paws,在Budderball等朋友的帮助下终于找到并救出了Puppy Paws,狗狗们必须尽快赶回北极拯救圣诞节。
Video
ID : 1
Format : AVC
Format/Info : Advanced Video Codec
Format profile : [email protected]
Format settings, CABAC : Yes
Format settings, ReFrames : 2 frames
Codec ID : V_MPEG4/ISO/AVC
Duration : 1h 28mn
Bit rate : 11.0 Mbps
Width : 1 920 pixels
Height : 1 072 pixels
Display aspect ratio : 16:9
Frame rate mode : Constant
Frame rate : 23.976 (24000/1001) fps
Color space : YUV
Chroma subsampling : 4:2:0
Bit depth : 8 bits
Scan type : Progressive
Bits/(Pixel*Frame) : 0.223
Stream size : 6.65 GiB (86%)
Writing library : x264 core 68 r1183M f21daff
Encoding settings : cabac=1 / ref=2 / deblock=1:0:0 / analyse=0x3:0x113 / me=hex / subme=4 / psy_rd=0.0:0.0 / mixed_ref=0 / me_range=16 / chroma_me=1 / trellis=1 / 8x8dct=1 / cqm=0 / deadzone=21,11 / chroma_qp_offset=0 / threads=6 / nr=0 / decimate=1 / mbaff=0 / bframes=3 / b_pyramid=0 / b_adapt=1 / b_bias=0 / direct=1 / wpredb=1 / keyint=250 / keyint_min=25 / scenecut=40 / rc=2pass / bitrate=11000 / ratetol=1.0 / qcomp=0.60 / qpmin=10 / qpmax=51 / qpstep=4 / cplxblur=20.0 / qblur=0.5 / ip_ratio=1.40 / pb_ratio=1.30 / aq=1:1.00
Language : English
Default : No
Forced : No

Audio
ID : 2
Format : DTS
Format/Info : Digital Theater Systems
Mode : 16
Format settings, Endianness : Big
Codec ID : A_DTS
Duration : 1h 28mn
Bit rate mode : Constant
Bit rate : 1 509 Kbps
Channel(s) : 6 channels
Channel positions : Front: L C R, Side: L R, LFE
Sampling rate : 48.0 KHz
Frame rate : 93.750 fps (512 spf)
Bit depth : 24 bits
Compression mode : Lossy
Stream size : 956 MiB (12%)
Language : English
Default : Yes
Forced : No

Text
ID : 3
Format : UTF-8
Codec ID : S_TEXT/UTF8
Codec ID/Info : UTF-8 Plain Text
Language : English
Default : Yes
Forced : No





1 个附件 售价 大小 下载 时间

Santa.Buddies.2009.1080p.BluRay.x264.DTS-FGT.torrent 0 金币 77.97K 154 次 7天前

#1楼
发帖时间:2020-06-30 22:13:29   |   回复数:2
911degrees
隐世仙人♂
非常感谢,谢谢分享
7天前 #2楼
jokingcheung
一代宗师
谢谢分享
7天前 #3楼
游客组