q3r3
武林高手

[更 早] [欧美] [其他] [BD-1080P] 考查克:花街恶魔/花街狂魔 The.Night.Strangler.1973.1080p.BluRay.x264-PSYCHD 8.75GB

-->

帖子完整标题:考查克:花街恶魔/花街狂魔 The.Night.Strangler.1973.1080p.BluRay.x264-PSYCHD 8.75GB



◎译  名 考查克:花街恶魔 / 花街狂魔
◎片  名 The Night Strangler
◎年  代 1973
◎产  地 美国
◎类  别 悬疑 / 恐怖 / 犯罪
◎语  言 英语
◎上映日期 1973-01-16
◎IMDb评分 7.5/10 from 2698 users
◎IMDb链接 https://www.imdb.com/title/tt0069002
◎豆瓣评分 0/10 from 0 users
◎豆瓣链接 https://movie.douban.com/subject/5055190/
◎片  长 90分钟
◎导  演 丹·柯蒂斯 Dan Curtis
◎编  剧 理查德·麦瑟森 Richard Matheson / Jeffrey Grant Rice
◎主  演 达伦·麦克加文 Darren McGavin
      Jo Ann Pflug
      西蒙·奥克兰 Simon Oakland


◎标  签 美国 | 恐怖 | 美國 | 犯罪 | 懸疑 | 悬疑 | 驚悚 | 記者

◎简  介

  Reporter Carl Kolchak is now in Seattle, Washington, trying to solve the mystery of several strangulations that recur every few years where the victims are drained of blood in this second made for TV pilot.

Video
ID : 1
Format : AVC
Format/Info : Advanced Video Codec
Format profile : [email protected]
Format settings : CABAC / 5 Ref Frames
Format settings, CABAC : Yes
Format settings, Reference frames : 5 frames
Codec ID : V_MPEG4/ISO/AVC
Duration : 1 h 30 min
Bit rate : 12.4 Mb/s
Width : 1 440 pixels
Height : 1 080 pixels
Display aspect ratio : 4:3
Frame rate mode : Constant
Frame rate : 23.976 (24000/1001/189150) FPS
Color space : YUV
Chroma subsampling : 4:2:0
Bit depth : 8 bits
Scan type : Progressive
Bits/(Pixel*Frame) : 0.332
Stream size : 7.62 GiB (87%)
Writing library : x264 core 157 r2932 303c484
Encoding settings : cabac=1 / ref=5 / deblock=1:-3:-3 / analyse=0x3:0x113 / me=umh / subme=8 / psy=1 / psy_rd=1.10:0.00 / mixed_ref=1 / me_range=32 / chroma_me=1 / trellis=2 / 8x8dct=1 / cqm=0 / deadzone=21,11 / fast_pskip=1 / chroma_qp_offset=-2 / threads=34 / lookahead_threads=5 / sliced_threads=0 / nr=0 / decimate=1 / interlaced=0 / bluray_compat=0 / constrained_intra=0 / bframes=3 / b_pyramid=2 / b_adapt=2 / b_bias=0 / direct=3 / weightb=1 / open_gop=0 / weightp=2 / keyint=240 / keyint_min=24 / scenecut=40 / intra_refresh=0 / rc_lookahead=50 / rc=2pass / mbtree=1 / bitrate=12396 / ratetol=1.0 / qcomp=0.60 / qpmin=0 / qpmax=69 / qpstep=4 / cplxblur=20.0 / qblur=0.5 / ip_ratio=1.40 / aq=3:0.75
Default : Yes
Forced : No
Statistics Tags Issue : no_variable_data 1970-01-01 00:00:00 / no_variable_data 2010-02-22 21:41:29
FromStats_BitRate : 12394929
FromStats_Duration : 01:30:02.522000000
FromStats_FrameCount : 129531
FromStats_StreamSize : 8370484984

Audio
ID : 2
Format : DTS
Format/Info : Digital Theater Systems
Codec ID : A_DTS
Duration : 1 h 30 min
Bit rate mode : Constant
Bit rate : 1 509 kb/s
Channel(s) : 2 channels
Channel layout : L R
Sampling rate : 48.0 kHz
Frame rate : 93.750 FPS (512 SPF)
Bit depth : 24 bits
Compression mode : Lossy
Stream size : 972 MiB (11%)
Language : English
Default : Yes
Forced : No
Statistics Tags Issue : no_variable_data 1970-01-01 00:00:00 / no_variable_data 2010-02-22 21:41:29
FromStats_BitRate : 1508999
FromStats_Duration : 01:30:02.539000000
FromStats_FrameCount : 506488
FromStats_StreamSize : 1019053856

Text
ID : 3
Format : UTF-8
Codec ID : S_TEXT/UTF8
Codec ID/Info : UTF-8 Plain Text
Language : English
Default : No
Forced : No
Statistics Tags Issue : no_variable_data 1970-01-01 00:00:00 / no_variable_data 2010-02-22 21:41:29
FromStats_BitRate : 69
FromStats_Duration : 01:28:13.996000000
FromStats_FrameCount : 1211
FromStats_StreamSize : 46104

Menu
00:00:00.000 : en:00:00:00.000
00:08:03.693 : en:00:08:03.693
00:19:10.317 : en:00:19:10.317
00:28:25.580 : en:00:28:25.580
00:39:31.871 : en:00:39:31.871
00:56:38.688 : en:00:56:38.688
01:05:43.733 : en:01:05:43.733
01:18:43.178 : en:01:18:43.178





1 个附件 售价 大小 下载 时间

The.Night.Strangler.1973.1080p.BluRay.x264-PSYCHD.zip 0 金币 89.05K 308 次 9天前

#1楼
发帖时间:2020-08-01 15:15:00   |   回复数:1
911degrees
隐世仙人♂
非常感谢,谢谢分享
9天前 #2楼
游客组