q3r3
武林高手

[2010] [欧美] [剧情] [BD-1080P] 亨利的罪行/亨利当盗 Henrys.Crime.2010.1080p.BluRay.X264-AVCHD 7.64GB

-->

帖子完整标题:亨利的罪行/亨利当盗 Henrys.Crime.2010.1080p.BluRay.X264-AVCHD 7.64GB



◎译  名 亨利的罪行 / 亨利当盗(台) / 揿钱闯情关(港)
◎片  名 Henry's Crime
◎年  代 2010
◎产  地 美国
◎类  别 剧情 / 喜剧 / 爱情 / 犯罪
◎语  言 英语
◎上映日期 2010-09-14(多伦多电影节) / 2011-04-08(美国)
◎IMDb评分 6.0/10 from 18690 users
◎IMDb链接 https://www.imdb.com/title/tt1220888
◎豆瓣评分 6.6/10 from 6377 users
◎豆瓣链接 https://movie.douban.com/subject/3431735/
◎片  长 108分钟
◎导  演 Malcolm Venville
◎编  剧 萨沙·杰瓦西 Sacha Gervasi / David N. White
◎主  演 基努·李维斯 Keanu Reeves
      维拉·法米加 Vera Farmiga
      费舍·史蒂芬斯 Fisher Stevens
      丹尼·霍奇 Danny Hoch
      比尔·杜克 Bill Duke
      Drew McVety
      Tim Snay
      朱迪·格雷尔 Judy Greer
      詹姆斯·凯恩 James Caan


◎标  签 美国 | KeanuReeves | 犯罪 | 爱情 | 剧情 | 喜剧 | 美国电影 | VeraFarmiga

◎简  介

  亨利(基努·李维斯 Keanu Reeves 饰)是一个没有梦想的男人,浑浑噩噩度日的他完全不明白自己究竟为了什么而活。一次意外让亨利锒铛入狱,在狱中,他结识了名叫马克斯(詹姆斯·凯恩 James Caan 饰)的诈骗犯。马克斯是一个无论身处何地都心怀梦想的男人,他的所作所为点醒了亨利,让亨利产生了寻找自己梦想的想法。
  出狱后,亨利总算找到了自己的梦想——抢劫一间银行。为了实现他的梦想,亨利甚至保释了根本就不愿意出狱的马克斯,两个笨贼开始着手实行他们的计划。在此期间,意外结识的女演员朱莉(维拉·法梅加 Vera Farmiga 饰)令亨利坠入了爱河,面对梦想和爱人,亨利不知该如何选择。

Video
ID : 1
Format : AVC
Format/Info : Advanced Video Codec
Format profile : [email protected]
Format settings : CABAC / 5 Ref Frames
Format settings, CABAC : Yes
Format settings, Reference frames : 5 frames
Codec ID : V_MPEG4/ISO/AVC
Duration : 1 h 47 min
Bit rate : 8 644 kb/s
Width : 1 920 pixels
Height : 800 pixels
Display aspect ratio : 2.40:1
Frame rate mode : Constant
Frame rate : 23.976 (23976/1000/189150) FPS
Color space : YUV
Chroma subsampling : 4:2:0
Bit depth : 8 bits
Scan type : Progressive
Bits/(Pixel*Frame) : 0.235
Stream size : 6.36 GiB (83%)
Writing library : x264 core 115 r1995 c1e60b9
Encoding settings : cabac=1 / ref=5 / deblock=1:0:0 / analyse=0x3:0x133 / me=umh / subme=7 / psy=1 / psy_rd=1.00:0.00 / mixed_ref=1 / me_range=16 / chroma_me=1 / trellis=1 / 8x8dct=1 / cqm=0 / deadzone=21,11 / fast_pskip=0 / chroma_qp_offset=-2 / threads=12 / sliced_threads=0 / nr=0 / decimate=1 / interlaced=0 / bluray_compat=0 / constrained_intra=0 / bframes=3 / b_pyramid=2 / b_adapt=1 / b_bias=0 / direct=1 / weightb=1 / open_gop=0 / weightp=2 / keyint=250 / keyint_min=23 / scenecut=40 / intra_refresh=0 / rc_lookahead=40 / rc=2pass / mbtree=1 / bitrate=8644 / ratetol=1.0 / qcomp=0.60 / qpmin=0 / qpmax=69 / qpstep=4 / cplxblur=20.0 / qblur=0.5 / ip_ratio=1.40 / aq=1:1.00
Language : English
Default : Yes
Forced : No

Audio
ID : 2
Format : DTS
Format/Info : Digital Theater Systems
Codec ID : A_DTS
Duration : 1 h 47 min
Bit rate mode : Constant
Bit rate : 1 509 kb/s
Channel(s) : 6 channels
Channel layout : C L R Ls Rs LFE
Sampling rate : 48.0 kHz
Frame rate : 93.750 FPS (512 SPF)
Bit depth : 24 bits
Compression mode : Lossy
Stream size : 1.14 GiB (15%)
Language : English
Default : Yes
Forced : No





1 个附件 售价 大小 下载 时间

Henrys.Crime.2010.1080p.BluRay.X264-AVCHD.zip 0 金币 77.07K 238 次 3天前

#1楼
发帖时间:2020-08-01 15:21:21   |   回复数:1
911degrees
隐世仙人♂
非常感谢,谢谢分享
3天前 #2楼
游客组