q3r3
武林高手

[更 早] [其他] [其他] [BD-1080P] 姜戈/迪亚戈 Django.1966.1080p.BluRay.x264-LCHD 6.56GB

-->

帖子完整标题:姜戈/迪亚戈 Django.1966.1080p.BluRay.x264-LCHD 6.56GB



◎译  名 姜戈 / 迪亚戈
◎片  名 Django
◎年  代 1966
◎产  地 意大利 / 西班牙
◎类  别 西部
◎语  言 意大利语
◎上映日期 1966-11-02
◎IMDb评分 7.2/10 from 24022 users
◎IMDb链接 https://www.imdb.com/title/tt0060315
◎豆瓣评分 7.6/10 from 2825 users
◎豆瓣链接 https://movie.douban.com/subject/1963163/
◎片  长 Spain: 87 分钟(censored version)
◎导  演 塞吉奥·考布西 Sergio Corbucci
◎编  剧 塞吉奥·考布西 Sergio Corbucci / 布鲁诺·考布西 Bruno Corbucci
◎主  演 弗兰科·尼罗 Franco Nero
      Eduardo Fajardo
      José Bódalo
      Loredana Nusciak
      ángel álvarez
      Rafael Albaicín
      Jimmy Douglas


◎标  签 意大利 | 西部片 | 西部 | 1966 | 意大利电影 | 塞吉奥·科布奇 | 1960s | SergioCorbucci

◎简  介

  荒凉的旷野,一群暴虐的劫匪正在鞭挞一位美丽的姑娘玛丽亚(萝蕾丹娜·卡波莱特 Loredana Cappelletti饰)。幸得迪亚戈(弗兰科·尼罗 Franco Nero饰)的解救。他神秘而冷峻,拖着一副棺材漫步在泥泞的荒野上。迪亚戈带着玛丽亚来到荒凉的小镇,人们对他的到来充满好奇,更对这副棺材里隐藏的秘密而惶惶不安。
  本片作为意大利西部片的经典暴力之作,曾在世界多国遭到禁映。2012年,鬼才导演昆汀·塔伦蒂诺拍摄的《被解放的姜戈》,向此片致敬。

Video
ID : 1
Format : AVC
Format/Info : Advanced Video Codec
Format profile : [email protected]
Format settings : CABAC / 4 Ref Frames
Format settings, CABAC : Yes
Format settings, Reference frames : 4 frames
Codec ID : V_MPEG4/ISO/AVC
Duration : 1 h 31 min
Bit rate : 9 480 kb/s
Width : 1 776 pixels
Height : 1 080 pixels
Display aspect ratio : 16:10
Frame rate mode : Constant
Frame rate : 23.976 (24000/1001/189150) FPS
Color space : YUV
Chroma subsampling : 4:2:0
Bit depth : 8 bits
Scan type : Progressive
Bits/(Pixel*Frame) : 0.206
Stream size : 5.94 GiB (91%)
Writing library : x264 core 104 r1713 c276662
Encoding settings : cabac=1 / ref=4 / deblock=1:-1:-1 / analyse=0x3:0x113 / me=umh / subme=7 / psy=1 / psy_rd=1.00:0.00 / mixed_ref=1 / me_range=16 / chroma_me=1 / trellis=1 / 8x8dct=1 / cqm=0 / deadzone=21,11 / fast_pskip=1 / chroma_qp_offset=-2 / threads=12 / sliced_threads=0 / nr=0 / decimate=1 / interlaced=0 / constrained_intra=0 / bframes=3 / b_pyramid=2 / b_adapt=2 / b_bias=0 / direct=3 / weightb=1 / open_gop=0 / weightp=2 / keyint=250 / keyint_min=23 / scenecut=40 / intra_refresh=0 / rc_lookahead=40 / rc=2pass / mbtree=1 / bitrate=9480 / ratetol=1.0 / qcomp=0.60 / qpmin=10 / qpmax=51 / qpstep=4 / cplxblur=20.0 / qblur=0.5 / vbv_maxrate=50000 / vbv_bufsize=50000 / ip_ratio=1.40 / aq=1:1.00 / nal_hrd=none
Language : Italian
Default : Yes
Forced : Yes

Audio
ID : 2
Format : DTS
Format/Info : Digital Theater Systems
Codec ID : A_DTS
Duration : 1 h 31 min
Bit rate mode : Constant
Bit rate : 768 kb/s
Channel(s) : 1 channel
Channel layout : C
Sampling rate : 48.0 kHz
Frame rate : 93.750 FPS (512 SPF)
Bit depth : 24 bits
Compression mode : Lossy
Stream size : 503 MiB (7%)
Language : Italian
Default : Yes
Forced : Yes

Text
ID : 3
Format : UTF-8
Codec ID : S_TEXT/UTF8
Codec ID/Info : UTF-8 Plain Text
Language : English
Default : Yes
Forced : No





1 个附件 售价 大小 下载 时间

Django.1966.1080p.BluRay.x264-LCHD.zip 0 金币 132.57K 336 次 3天前

#1楼
发帖时间:2020-08-01 15:27:00   |   回复数:1
911degrees
隐世仙人♂
非常感谢,谢谢分享
3天前 #2楼
游客组