q3r3
武林高手

[更 早] [欧美] [科幻] [BD-1080P] 异形基地/外星人入侵 Body.Snatchers.1993.1080p.BluRay.x264-PSYCHD 6.56GB

-->

帖子完整标题:异形基地/外星人入侵 Body.Snatchers.1993.1080p.BluRay.x264-PSYCHD 6.56GB



◎译  名 异形基地 / 外星人入侵 / 异型基地 / 异形怪客
◎片  名 Body Snatchers
◎年  代 1993
◎产  地 美国
◎类  别 科幻 / 悬疑 / 惊悚 / 恐怖
◎语  言 英语
◎上映日期 1993-06-09(美国)
◎IMDb评分 5.9/10 from 16280 users
◎IMDb链接 https://www.imdb.com/title/tt0106452
◎豆瓣评分 6.2/10 from 757 users
◎豆瓣链接 https://movie.douban.com/subject/1295404/
◎片  长 87分钟
◎导  演 阿贝尔·费拉拉 Abel Ferrara
◎编  剧 Raymond Cistheri
◎主  演 加布里埃尔·安瓦尔 Gabrielle Anwar
      特里·金尼 Terry Kinney
      比利·沃斯 Billy Wirth
      梅格·提利 Meg Tilly
      福里斯特·惠特克 Forest Whitaker


◎标  签 科幻 | 恐怖 | 美国 | 惊悚 | 美国电影 | 1993 | 异型 | 1990s

◎简  介

  恐怖事件接二连三地在某军事基地发生,外星生物在人们熟睡的时候正大批侵入人体和大脑,进而毁灭人类……玛蒂和弟弟跟随从事环保工作的爸爸来到一个军事基地,调查那里的化学污染情况,恐怖之事从此接踵而来。刚进基地玛蒂就觉得那里的人都很怪异。原来这个基地已被外星来的一种生物所占领。它们趁人们熟睡的时候侵入人的体内和大脑,让他们成为活死人,企图籍此占领所有的军事基地。进而毁灭人类。玛蒂的父母及弟弟都相继被外星生物杀死。玛蒂在飞行员蒂姆的救助下逃出该基地,并在路上炸毁了将外星生物运往其它军事基地的卡车。但除了他们俩之外,又有谁会相信这段经历呢?

◎获奖情况

  第46届戛纳电影节(1993)
  主竞赛单元 金棕榈奖(提名) 阿贝尔·费拉拉

Video
ID : 1
Format : AVC
Format/Info : Advanced Video Codec
Format profile : [email protected]
Format settings : CABAC / 5 Ref Frames
Format settings, CABAC : Yes
Format settings, Reference frames : 5 frames
Codec ID : V_MPEG4/ISO/AVC
Duration : 1 h 27 min
Bit rate : 9 265 kb/s
Width : 1 920 pixels
Height : 800 pixels
Display aspect ratio : 2.40:1
Frame rate mode : Constant
Frame rate : 23.976 (24000/1001/189150) FPS
Color space : YUV
Chroma subsampling : 4:2:0
Bit depth : 8 bits
Scan type : Progressive
Bits/(Pixel*Frame) : 0.252
Stream size : 5.51 GiB (84%)
Writing library : x264 core 152 r2851 ba24899
Encoding settings : cabac=1 / ref=5 / deblock=1:-3:-3 / analyse=0x3:0x113 / me=umh / subme=8 / psy=1 / psy_rd=1.10:0.00 / mixed_ref=1 / me_range=32 / chroma_me=1 / trellis=2 / 8x8dct=1 / cqm=0 / deadzone=21,11 / fast_pskip=1 / chroma_qp_offset=-2 / threads=24 / lookahead_threads=4 / sliced_threads=0 / nr=0 / decimate=1 / interlaced=0 / bluray_compat=0 / constrained_intra=0 / bframes=3 / b_pyramid=2 / b_adapt=2 / b_bias=0 / direct=3 / weightb=1 / open_gop=0 / weightp=2 / keyint=240 / keyint_min=24 / scenecut=40 / intra_refresh=0 / rc_lookahead=50 / rc=2pass / mbtree=1 / bitrate=9265 / ratetol=1.0 / qcomp=0.60 / qpmin=0 / qpmax=69 / qpstep=4 / cplxblur=20.0 / qblur=0.5 / ip_ratio=1.40 / aq=3:0.75
Default : Yes
Forced : No
Statistics Tags Issue : no_variable_data 1970-01-01 00:00:00 / no_variable_data 2010-02-22 21:41:29
FromStats_BitRate : 9261763
FromStats_Duration : 01:27:08.265000000
FromStats_FrameCount : 125353
FromStats_StreamSize : 6052869004

Audio
ID : 2
Format : DTS
Format/Info : Digital Theater Systems
Codec ID : A_DTS
Duration : 1 h 27 min
Bit rate mode : Constant
Bit rate : 1 509 kb/s
Channel(s) : 6 channels
Channel layout : C L R Ls Rs LFE
Sampling rate : 48.0 kHz
Frame rate : 93.750 FPS (512 SPF)
Bit depth : 24 bits
Compression mode : Lossy
Stream size : 941 MiB (14%)
Language : English
Default : Yes
Forced : No
Statistics Tags Issue : no_variable_data 1970-01-01 00:00:00 / no_variable_data 2010-02-22 21:41:29
FromStats_BitRate : 1509000
FromStats_Duration : 01:27:08.288000000
FromStats_FrameCount : 490152
FromStats_StreamSize : 986185824

Text #1
ID : 3
Format : UTF-8
Codec ID : S_TEXT/UTF8
Codec ID/Info : UTF-8 Plain Text
Language : English
Default : No
Forced : No
Statistics Tags Issue : no_variable_data 1970-01-01 00:00:00 / no_variable_data 2010-02-22 21:41:29
FromStats_BitRate : 37
FromStats_Duration : 01:20:26.488000000
FromStats_FrameCount : 944
FromStats_StreamSize : 22460

Text #2
ID : 4
Format : UTF-8
Codec ID : S_TEXT/UTF8
Codec ID/Info : UTF-8 Plain Text
Title : SDH
Language : English
Default : No
Forced : No
Statistics Tags Issue : no_variable_data 1970-01-01 00:00:00 / no_variable_data 2010-02-22 21:41:29
FromStats_BitRate : 38
FromStats_Duration : 01:20:30.909000000
FromStats_FrameCount : 1006
FromStats_StreamSize : 23357

Menu
00:00:00.000 : en:00:00:00.000
00:03:58.238 : en:00:03:58.238
00:06:14.708 : en:00:06:14.708
00:11:07.542 : en:00:11:07.542
00:12:34.128 : en:00:12:34.128
00:15:37.687 : en:00:15:37.687
00:18:19.223 : en:00:18:19.223
00:19:44.266 : en:00:19:44.266
00:21:19.445 : en:00:21:19.445
00:24:29.093 : en:00:24:29.093
00:29:00.781 : en:00:29:00.781
00:32:31.366 : en:00:32:31.366
00:36:52.127 : en:00:36:52.127
00:38:46.491 : en:00:38:46.491
00:40:10.158 : en:00:40:10.158
00:41:28.236 : en:00:41:28.236
00:43:23.518 : en:00:43:23.518
00:49:24.211 : en:00:49:24.211
00:50:10.674 : en:00:50:10.674
00:52:52.711 : en:00:52:52.711
00:55:24.988 : en:00:55:24.988
01:01:56.338 : en:01:01:56.338
01:05:35.098 : en:01:05:35.098
01:11:45.218 : en:01:11:45.218
01:14:24.126 : en:01:14:24.126
01:16:53.859 : en:01:16:53.859
01:19:50.703 : en:01:19:50.703
01:21:59.915 : en:01:21:59.915
01:23:44.394 : en:01:23:44.394





1 个附件 售价 大小 下载 时间

Body.Snatchers.1993.1080p.BluRay.x264-PSYCHD.zip 0 金币 131.84K 497 次 9天前

#1楼
发帖时间:2020-08-01 15:35:57   |   回复数:1
911degrees
隐世仙人♂
非常感谢,谢谢分享
9天前 #2楼
游客组