q3r3
武林高手

[更 早] [其他] [喜剧] [BD-1080P] 跳跳虎历险记/老虎的故事 The.Tigger.Movie.2000.1080p.BluRay.x264-PSYCHD 4.37GB

-->

帖子完整标题:跳跳虎历险记/老虎的故事 The.Tigger.Movie.2000.1080p.BluRay.x264-PSYCHD 4.37GB



◎译  名 跳跳虎历险记 / 老虎的故事
◎片  名 The Tigger Movie
◎年  代 2000
◎产  地 美国 / 日本
◎类  别 喜剧 / 动画
◎语  言 英语
◎上映日期 2000-02-11(美国)
◎IMDb评分 6.3/10 from 16763 users
◎IMDb链接 https://www.imdb.com/title/tt0220099
◎豆瓣评分 8.4/10 from 3139 users
◎豆瓣链接 https://movie.douban.com/subject/1306554/
◎片  长 77 分钟
◎导  演 君·法尔克斯汀 Jun Falkenstein
◎编  剧 A.A. 麦尼 (A.A. Milne) / Eddie Guzelian / 军 费尔肯斯坦 (Jun Falkenstein)
◎主  演 吉姆·库宁斯 Jim Cummings
      约翰·菲德勒 John Fiedler
      Nikita Hopkins
      Ken Sansom
      彼特·库伦 Peter Cullen
      凯斯·索西 Kath Soucie
      Tom Attenborough


◎标  签 动画 | 美国 | 跳跳虎历险记 | Disney | 迪斯尼 | 童年 | 美国动画 | 动画片

◎简  介

  维尼(吉姆·库宁斯 Jim Cummings 配音)、小猪(约翰·菲尔德 John Fiedler 配音)、猫头鹰(Andre Stojka 配音)、小兔(Ken Sansom 配音)和跳跳虎(吉姆·库宁斯 Jim Cummings 配音)等朋友们正聚在一起,布置它们的新家,然而跳跳虎总是淘气的跳来跳去惹出一堆麻烦,于是小兔建议跳跳虎先去找其他的跳跳虎一起玩。然而,跳跳虎从来没有见过其他的跳跳虎,它甚至开始怀疑,这个世界里是否还有自己的同类。
  博学多识的猫头鹰告诉跳跳虎,在家族之树上刻有问题的答案,于是,在朋友们的陪伴和帮助下,跳跳虎踏上了寻根溯源的旅途。一路上,它们历经艰险和磨难,友情亦受到重重考验,最终,会有怎样的结局等待着它们呢?

◎获奖情况

  第28届动画安妮奖(2000)
  最佳导演(提名) 君·法尔克斯汀
  最佳男配音(提名) Nikita Hopkins
  最佳配乐(提名) 罗伯特·谢尔曼 / 理查德·谢尔曼

Video
ID : 1
Format : AVC
Format/Info : Advanced Video Codec
Format profile : [email protected]
Format settings : CABAC / 4 Ref Frames
Format settings, CABAC : Yes
Format settings, Reference frames : 4 frames
Codec ID : V_MPEG4/ISO/AVC
Duration : 1 h 17 min
Bit rate : 6 601 kb/s
Width : 1 920 pixels
Height : 1 080 pixels
Display aspect ratio : 16:9
Frame rate mode : Constant
Frame rate : 23.976 (24000/1001/189150) FPS
Color space : YUV
Chroma subsampling : 4:2:0
Bit depth : 8 bits
Scan type : Progressive
Bits/(Pixel*Frame) : 0.133
Stream size : 3.47 GiB (79%)
Writing library : x264 core 125 r2208 d9d2288
Encoding settings : cabac=1 / ref=4 / deblock=1:0:0 / analyse=0x3:0x113 / me=umh / subme=8 / psy=1 / psy_rd=1.00:0.00 / mixed_ref=1 / me_range=16 / chroma_me=1 / trellis=1 / 8x8dct=1 / cqm=0 / deadzone=21,11 / fast_pskip=1 / chroma_qp_offset=-2 / threads=12 / lookahead_threads=2 / sliced_threads=0 / nr=0 / decimate=1 / interlaced=0 / bluray_compat=0 / constrained_intra=0 / bframes=3 / b_pyramid=2 / b_adapt=2 / b_bias=0 / direct=3 / weightb=1 / open_gop=0 / weightp=2 / keyint=240 / keyint_min=24 / scenecut=40 / intra_refresh=0 / rc_lookahead=50 / rc=2pass / mbtree=1 / bitrate=6601 / ratetol=1.0 / qcomp=0.60 / qpmin=0 / qpmax=69 / qpstep=4 / cplxblur=20.0 / qblur=0.5 / ip_ratio=1.40 / aq=1:1.00
Language : English
Default : Yes
Forced : No

Audio
ID : 2
Format : DTS
Format/Info : Digital Theater Systems
Codec ID : A_DTS
Duration : 1 h 17 min
Bit rate mode : Constant
Bit rate : 1 509 kb/s
Channel(s) : 6 channels
Channel layout : C L R Ls Rs LFE
Sampling rate : 48.0 kHz
Frame rate : 93.750 FPS (512 SPF)
Bit depth : 24 bits
Compression mode : Lossy
Stream size : 832 MiB (19%)
Language : English
Default : Yes
Forced : No

Text
ID : 3
Format : UTF-8
Codec ID : S_TEXT/UTF8
Codec ID/Info : UTF-8 Plain Text
Language : English
Default : No
Forced : No

Menu
00:00:00.000 : en:00:00:00.000
00:01:36.930 : en:00:01:36.930
00:04:48.788 : en:00:04:48.788
00:09:34.491 : en:00:09:34.491
00:12:44.430 : en:00:12:44.430
00:14:48.304 : en:00:14:48.304
00:18:09.630 : en:00:18:09.630
00:23:15.769 : en:00:23:15.769
00:24:43.232 : en:00:24:43.232
00:27:01.787 : en:00:27:01.787
00:27:55.757 : en:00:27:55.757
00:32:09.094 : en:00:32:09.094
00:35:44.100 : en:00:35:44.100
00:37:19.404 : en:00:37:19.404
00:41:49.006 : en:00:41:49.006
00:45:38.527 : en:00:45:38.527
00:49:58.787 : en:00:49:58.787
00:55:40.212 : en:00:55:40.212
00:58:59.786 : en:00:58:59.786
01:02:08.892 : en:01:02:08.892
01:07:05.438 : en:01:07:05.438
01:09:23.743 : en:01:09:23.743
01:11:44.425 : en:01:11:44.425





1 个附件 售价 大小 下载 时间

The.Tigger.Movie.2000.1080p.BluRay.x264-PSYCHD.zip 0 金币 88.88K 371 次 9天前

#1楼
发帖时间:2020-08-01 15:36:05   |   回复数:1
911degrees
隐世仙人♂
非常感谢,谢谢分享
9天前 #2楼
游客组