q3r3
武林高手

[更 早] [其他] [剧情] [BD-1080P] 逃亡之路/亡命大煞星 The.Getaway.1994.1080p.BluRay.x264-PSYCHD 10.93GB

-->

帖子完整标题:逃亡之路/亡命大煞星 The.Getaway.1994.1080p.BluRay.x264-PSYCHD 10.93GB



◎译  名 逃亡之路 / 亡命大煞星 / 亡命鸳鸯 / 狂野鸳鸯 / 赌命鸳鸯
◎片  名 The Getaway
◎年  代 1994
◎产  地 美国 / 日本
◎类  别 剧情 / 动作 / 爱情 / 惊悚 / 犯罪 / 冒险
◎语  言 英语
◎上映日期 1994-02-11(美国)
◎IMDb评分 5.8/10 from 16721 users
◎IMDb链接 https://www.imdb.com/title/tt0109890
◎豆瓣评分 7.2/10 from 756 users
◎豆瓣链接 https://movie.douban.com/subject/1293070/
◎片  长 115分钟
◎导  演 罗杰·唐纳森 Roger Donaldson
◎编  剧 Amy Holden Jones / Jim Thompson / 沃尔特·希尔 Walter Hill
◎主  演 金·贝辛格 Kim Basinger
      亚历克·鲍德温 Alec Baldwin
      詹姆斯·伍兹 James Woods


◎标  签 美国 | 犯罪 | 动作 | 金贝辛格 | 爱情 | 美国电影 | 公路电影 | 1994

◎简  介

  本片是1972年电影的重拍片,原版是表现大盗道克·麦科伊本着一诺千金和言必信、行必果的职业行规闯荡江湖的不凡经历。1994年这个新版本中,突出了大盗的妻子卡罗尔的戏份,她不再是丈夫的附庸,更是一个舞枪弄棒的同案犯。为了不让丈夫坐牢,她可以不惜一切代价。例如,她得知这次承办的抢劫案难度极大,但由于条件是道克可以免去牢狱之灾,因此她决定知难而上。但是,当钱抢到手之后她才发觉,真正的风险并不在于抢劫行动,而在于从逃离现场那一刻开始……

Video
ID : 1
Format : AVC
Format/Info : Advanced Video Codec
Format profile : [email protected]
Format settings : CABAC / 5 Ref Frames
Format settings, CABAC : Yes
Format settings, Reference frames : 5 frames
Codec ID : V_MPEG4/ISO/AVC
Duration : 1 h 55 min
Bit rate : 12.1 Mb/s
Width : 1 920 pixels
Height : 816 pixels
Display aspect ratio : 2.35:1
Frame rate mode : Constant
Frame rate : 23.976 (24000/1001/189150) FPS
Color space : YUV
Chroma subsampling : 4:2:0
Bit depth : 8 bits
Scan type : Progressive
Bits/(Pixel*Frame) : 0.321
Stream size : 9.50 GiB (87%)
Writing library : x264 core 148 r2744 b97ae06
Encoding settings : cabac=1 / ref=5 / deblock=1:-3:-3 / analyse=0x3:0x113 / me=umh / subme=8 / psy=1 / psy_rd=1.12:0.00 / mixed_ref=1 / me_range=32 / chroma_me=1 / trellis=1 / 8x8dct=1 / cqm=0 / deadzone=21,11 / fast_pskip=1 / chroma_qp_offset=-2 / threads=24 / lookahead_threads=4 / sliced_threads=0 / nr=0 / decimate=1 / interlaced=0 / bluray_compat=0 / constrained_intra=0 / bframes=3 / b_pyramid=2 / b_adapt=2 / b_bias=0 / direct=3 / weightb=1 / open_gop=0 / weightp=2 / keyint=240 / keyint_min=24 / scenecut=40 / intra_refresh=0 / rc_lookahead=50 / rc=2pass / mbtree=1 / bitrate=12072 / ratetol=1.0 / qcomp=0.60 / qpmin=0 / qpmax=69 / qpstep=4 / cplxblur=20.0 / qblur=0.5 / ip_ratio=1.40 / aq=3:0.75
Default : Yes
Forced : No
Statistics Tags Issue : no_variable_data 1970-01-01 00:00:00 / no_variable_data 2010-02-22 21:41:29
FromStats_BitRate : 12068306
FromStats_Duration : 01:55:13.449000000
FromStats_FrameCount : 165757
FromStats_StreamSize : 10429202893

Audio
ID : 2
Format : DTS
Format/Info : Digital Theater Systems
Codec ID : A_DTS
Duration : 1 h 55 min
Bit rate mode : Constant
Bit rate : 1 509 kb/s
Channel(s) : 6 channels
Channel layout : C L R Ls Rs LFE
Sampling rate : 48.0 kHz
Frame rate : 93.750 FPS (512 SPF)
Bit depth : 24 bits
Compression mode : Lossy
Stream size : 1.21 GiB (11%)
Language : English
Default : Yes
Forced : No
Statistics Tags Issue : no_variable_data 1970-01-01 00:00:00 / no_variable_data 2010-02-22 21:41:29
FromStats_BitRate : 1508999
FromStats_Duration : 01:55:13.451000000
FromStats_FrameCount : 648136
FromStats_StreamSize : 1304049632

Menu
00:00:00.000 : en:00:00:00.000
00:11:39.449 : en:00:11:39.449
00:20:50.416 : en:00:20:50.416
00:31:29.137 : en:00:31:29.137
00:41:40.289 : en:00:41:40.289
00:51:45.477 : en:00:51:45.477
01:02:03.803 : en:01:02:03.803
01:12:46.153 : en:01:12:46.153
01:22:44.960 : en:01:22:44.960
01:32:42.223 : en:01:32:42.223
01:44:10.077 : en:01:44:10.077
01:51:41.653 : en:01:51:41.653





1 个附件 售价 大小 下载 时间

The.Getaway.1994.1080p.BluRay.x264-PSYCHD.zip 0 金币 56.10K 448 次 9天前

#1楼
发帖时间:2020-08-01 15:38:52   |   回复数:1
911degrees
隐世仙人♂
非常感谢,谢谢分享
9天前 #2楼
游客组