q3r3
武林高手

[更 早] [其他] [其他] [BD-1080P] 小飞侠2:梦不落帝国 Peter.Pan.II.Return.to.Neverland.2002.1080p.BluRay.x264-PSYCHD 4.37GB

-->

帖子完整标题:小飞侠2:梦不落帝国 Peter.Pan.II.Return.to.Neverland.2002.1080p.BluRay.x264-PSYCHD 4.37GB



◎译  名 小飞侠2:梦不落帝国 / Peter Pan: Return to Never Land / 小飞侠2002飞越梦幻岛 / 小飞侠2之重返梦幻岛 / 梦不落帝国
◎片  名 Return to Never Land
◎年  代 2002
◎产  地 美国 / 加拿大 / 澳大利亚
◎类  别 动画 / 奇幻 / 冒险
◎语  言 英语
◎上映日期 2002-01-01(斯里兰卡) / 2002-02-15(美国)
◎IMDb评分 5.8/10 from 17947 users
◎IMDb链接 https://www.imdb.com/title/tt0280030
◎豆瓣评分 7.9/10 from 1110 users
◎豆瓣链接 https://movie.douban.com/subject/1306441/
◎片  长 72分钟
◎导  演 罗宾·巴德 Robin Budd / 多诺文·库克 Donovan Cook
◎编  剧 坦普尔·马休斯 Temple Mathews / 卡特·克劳克 Carter Crocker / J·M·巴利 J.M. Barrie
◎主  演 哈丽特·欧文 Harriet Owen
      布赖恩·韦弗 Blayne Weaver
      科里·伯顿 Corey Burton
      杰夫·贝内特 Jeff Bennett
      凯斯·索西 Kath Soucie
      安德鲁·麦克多诺 Andrew McDonough
      罗杰·里斯 Roger Rees
      史宾塞·布瑞斯林 Spencer Breslin
      布莱德利·皮尔斯 Bradley Pierce
      奎因·贝齐克 Quinn Beswick
      亚伦·斯潘 Aaron Spann
      丹·卡斯泰兰尼塔 Dan Castellaneta
      吉姆·库宁斯 Jim Cummings
      罗伯·鲍森 Rob Paulsen
      克里夫·雷维尔 Clive Revill
      弗兰克·维尔克 Frank Welker
      瓦利·维吉尔特 Wally Wingert


◎标  签 动画 | 美国 | Disney | 迪斯尼 | 迪士尼 | 奇幻 | 2002 | 魔幻

◎简  介

  故事紧接着上一集发展着。温蒂(凯斯·索西 Kath Soucie 配音)已经长大成人,并且拥有了自己的家庭和孩子。过去如梦似幻的回忆始终是她汲取精神养分的田地,并且她十分乐意将这个故事告诉她的下一代。
  作为温蒂的孩子,小飞侠的故事丹尼(安德鲁·麦克多诺 Andrew McDonough 配音)和珍(哈丽特·欧文 Harriet Owen 配音)已经听了无数遍。对于妈妈口中的奇遇和冒险,丹尼坚信不疑,可珍就没这么单纯了,她觉得这只是妈妈编出来哄他们高兴的故事罢了。让珍没有想到的是,故事中的虎克船长(科里·伯顿 Corey Burton 配音)竟然真的现身了,不仅如此,他还把珍绑架到了梦幻岛。小飞侠和小叮当的故事再度开演。

◎获奖情况

  第30届动画安妮奖(2003)
  最佳配音(提名) 科里·伯顿
  最佳配乐(提名) Jonatha Brooke / 乔尔·麦克尼利

Video
ID : 1
Format : AVC
Format/Info : Advanced Video Codec
Format profile : [email protected]
Format settings : CABAC / 4 Ref Frames
Format settings, CABAC : Yes
Format settings, Reference frames : 4 frames
Codec ID : V_MPEG4/ISO/AVC
Duration : 1 h 12 min
Bit rate : 7 116 kb/s
Width : 1 840 pixels
Height : 1 080 pixels
Display aspect ratio : 1.704
Frame rate mode : Constant
Frame rate : 23.976 (24000/1001/189150) FPS
Color space : YUV
Chroma subsampling : 4:2:0
Bit depth : 8 bits
Scan type : Progressive
Bits/(Pixel*Frame) : 0.149
Stream size : 3.52 GiB (81%)
Writing library : x264 core 128 r2216 198a7ea
Encoding settings : cabac=1 / ref=4 / deblock=1:0:0 / analyse=0x3:0x113 / me=umh / subme=8 / psy=1 / psy_rd=1.00:0.00 / mixed_ref=1 / me_range=16 / chroma_me=1 / trellis=1 / 8x8dct=1 / cqm=0 / deadzone=21,11 / fast_pskip=1 / chroma_qp_offset=-2 / threads=12 / lookahead_threads=2 / sliced_threads=0 / nr=0 / decimate=1 / interlaced=0 / bluray_compat=0 / constrained_intra=0 / bframes=3 / b_pyramid=2 / b_adapt=2 / b_bias=0 / direct=3 / weightb=1 / open_gop=0 / weightp=2 / keyint=240 / keyint_min=24 / scenecut=40 / intra_refresh=0 / rc_lookahead=50 / rc=2pass / mbtree=1 / bitrate=7116 / ratetol=1.0 / qcomp=0.60 / qpmin=0 / qpmax=69 / qpstep=4 / cplxblur=20.0 / qblur=0.5 / ip_ratio=1.40 / aq=1:1.00
Language : English
Default : Yes
Forced : No

Audio
ID : 2
Format : DTS
Format/Info : Digital Theater Systems
Codec ID : A_DTS
Duration : 1 h 12 min
Bit rate mode : Constant
Bit rate : 1 509 kb/s
Channel(s) : 6 channels
Channel layout : C L R Ls Rs LFE
Sampling rate : 48.0 kHz
Frame rate : 93.750 FPS (512 SPF)
Bit depth : 24 bits
Compression mode : Lossy
Stream size : 783 MiB (17%)
Language : English
Default : Yes
Forced : No

Text
ID : 3
Format : UTF-8
Codec ID : S_TEXT/UTF8
Codec ID/Info : UTF-8 Plain Text
Language : English
Default : No
Forced : No

Menu
00:00:00.000 : en:00:00:00.000
00:03:12.275 : en:00:03:12.275
00:09:41.080 : en:00:09:41.080
00:12:26.329 : en:00:12:26.329
00:14:39.378 : en:00:14:39.378
00:17:47.191 : en:00:17:47.191
00:22:40.317 : en:00:22:40.317
00:23:25.696 : en:00:23:25.696
00:27:40.909 : en:00:27:40.909
00:30:16.898 : en:00:30:16.898
00:33:26.963 : en:00:33:26.963
00:35:45.894 : en:00:35:45.894
00:37:25.452 : en:00:37:25.452
00:39:00.547 : en:00:39:00.547
00:40:17.874 : en:00:40:17.874
00:43:46.374 : en:00:43:46.374
00:44:29.417 : en:00:44:29.417
00:46:53.144 : en:00:46:53.144
00:48:57.143 : en:00:48:57.143
00:50:42.414 : en:00:50:42.414
00:55:59.731 : en:00:55:59.731
00:57:26.693 : en:00:57:26.693
00:59:14.509 : en:00:59:14.509
01:01:24.639 : en:01:01:24.639
01:02:42.008 : en:01:02:42.008
01:04:58.269 : en:01:04:58.269





1 个附件 售价 大小 下载 时间

Peter.Pan.II.Return.to.Neverland.2002.1080p.BluRay.x264-PSYCHD.zip 0 金币 88.92K 434 次 9天前

#1楼
发帖时间:2020-08-01 15:42:22   |   回复数:1
911degrees
隐世仙人♂
非常感谢,谢谢分享
9天前 #2楼
游客组