coor
一代宗师

[更 早] [其他] [剧情] [WEB-1080P] 伤心小孩 The.Heartbreak.Kid.1993.1080p.WEBRip.AAC2.0.x264-PlayWEB 4.24GB

-->

帖子完整标题:伤心小孩 The.Heartbreak.Kid.1993.1080p.WEBRip.AAC2.0.x264-PlayWEB 4.24GB



◎译  名 伤心小孩
◎片  名 The Heartbreak Kid
◎年  代 1993
◎产  地 澳大利亚
◎类  别 剧情
◎语  言 英语
◎上映日期 1993-06-17
◎IMDb链接 http://www.imdb.com/title/tt0107093/
◎豆瓣评分 0/10 from 0 users
◎豆瓣链接 https://movie.douban.com/subject/3013549/
◎片  长 97 分钟
◎导  演 Michael Jenkins
◎编  剧 Robert Barrett (play) / Robert Barrett (screenplay)
◎主  演 Alex Dimitriades
      Claudia Karvan


◎标  签 澳大利亚 | 美国 | 电影 | 爱情 | 剧情 | P-MontrealA入围主竞赛 | 1993 | 1990s欧美

◎简  介

  A hip, hot and sexy lesson in love!
  Christina (Claudia Karvan) is a school teacher from a wealthy Greek-Australian background, engaged to a lawyer and content with the traditional course of her life. She begins teaching at an inner-city working-class school and she finds her ideas challenged by the students. Involving herself in a campaign by a group of non-anglo students to form a soccer club in a school where the racist PE teacher only supports Australian Rules Football, Christina starts falling in love with aspiring soccer player, 17 year old Nick (Alex Dimitriades). The ensuing affair forces Christina to challenge herself, her family and the culture she lives in.
  Managing to effectively combine comedy with a refreshing examination of contemporary ethnic relationships in Australia, beautifully acted by a young cast, and insightfully scripted.

Video
ID : 1
Format : AVC
Format/Info : Advanced Video Codec
Format profile : [email protected]
Format settings : CABAC / 4 Ref Frames
Format settings, CABAC : Yes
Format settings, Reference frames : 4 frames
Codec ID : V_MPEG4/ISO/AVC
Duration : 1 h 33 min
Bit rate : 6 368 kb/s
Width : 1 920 pixels
Height : 1 080 pixels
Display aspect ratio : 16:9
Frame rate mode : Constant
Frame rate : 25.000 FPS
Color space : YUV
Chroma subsampling : 4:2:0
Bit depth : 8 bits
Scan type : Progressive
Bits/(Pixel*Frame) : 0.123
Stream size : 4.15 GiB (98%)
Default : Yes
Forced : No
Color range : Limited
Color primaries : BT.709
Transfer characteristics : BT.709
Matrix coefficients : BT.709

Audio
ID : 2
Format : AAC LC
Format/Info : Advanced Audio Codec Low Complexity
Codec ID : A_AAC-2
Duration : 1 h 33 min
Bit rate : 126 kb/s
Channel(s) : 2 channels
Channel layout : L R
Sampling rate : 44.1 kHz
Frame rate : 43.066 FPS (1024 SPF)
Compression mode : Lossy
Stream size : 83.9 MiB (2%)
Language : English
Default : Yes
Forced : No

Text
ID : 3
Format : UTF-8
Codec ID : S_TEXT/UTF8
Codec ID/Info : UTF-8 Plain Text
Duration : 1 h 33 min
Bit rate : 61 b/s
Count of elements : 1837
Stream size : 42.0 KiB (0%)
Language : English
Default : Yes
Forced : No





1 个附件 售价 大小 下载 时间

The.Heartbreak.Kid.1993.1080p.WEBRip.AAC2.0.x264-PlayWEB.zip 0 金币 43.87K 119 次 9天前

#1楼
发帖时间:2020-08-01 23:34:38   |   回复数:1
911degrees
隐世仙人♂
非常感谢,谢谢分享
9天前 #2楼
游客组