coor
一代宗师

[更 早] [其他] [喜剧] [WEB-1080P] 坏蛋 Bad.Eggs.2003.1080p.WEBRip.AAC2.0.x264-PlayWEB 4.39GB

-->

帖子完整标题:坏蛋 Bad.Eggs.2003.1080p.WEBRip.AAC2.0.x264-PlayWEB 4.39GB



◎译  名 坏蛋
◎片  名 Bad Eggs
◎年  代 2003
◎产  地 澳大利亚
◎类  别 喜剧 / 惊悚
◎语  言 英语
◎上映日期 2003-07-24
◎IMDb评分 6.4/10 from 1424 users
◎IMDb链接 https://www.imdb.com/title/tt0312409
◎豆瓣评分 0/10 from 0 users
◎豆瓣链接 https://movie.douban.com/subject/2160309/
◎片  长 98 分钟
◎导  演 Tony Martin
◎主  演 比尔·亨特


◎标  签 混蛋片 | 2003 | 电影 | 澳大利亚电影 | 澳大利亚 | Robyn_Nevin

◎简  介

  本和迈克是“零点解救联盟”的两个卧底,在接连不断的侦案失败后,他们终于迎来了职业生涯的春天,在一名记者和一个电脑怪才的协助下,本和迈克查明了总理和帕特拉等人的腐败案。

Video
ID : 1
Format : AVC
Format/Info : Advanced Video Codec
Format profile : [email protected]
Format settings : CABAC / 1 Ref Frames
Format settings, CABAC : Yes
Format settings, Reference frames : 1 frame
Codec ID : V_MPEG4/ISO/AVC
Duration : 1 h 34 min
Bit rate : 6 408 kb/s
Width : 1 920 pixels
Height : 1 080 pixels
Display aspect ratio : 16:9
Frame rate mode : Constant
Frame rate : 25.000 FPS
Color space : YUV
Chroma subsampling : 4:2:0
Bit depth : 8 bits
Scan type : Progressive
Bits/(Pixel*Frame) : 0.124
Stream size : 4.22 GiB (96%)
Writing library : Zencoder Video Encoding System
Default : Yes
Forced : No
Color range : Limited
Color primaries : BT.709
Transfer characteristics : BT.709
Matrix coefficients : BT.709

Audio
ID : 2
Format : AAC LC
Format/Info : Advanced Audio Codec Low Complexity
Codec ID : A_AAC-2
Duration : 1 h 34 min
Bit rate : 256 kb/s
Channel(s) : 2 channels
Channel layout : L R
Sampling rate : 44.1 kHz
Frame rate : 43.066 FPS (1024 SPF)
Compression mode : Lossy
Stream size : 173 MiB (4%)
Language : English
Default : Yes
Forced : No

Text
ID : 3
Format : UTF-8
Codec ID : S_TEXT/UTF8
Codec ID/Info : UTF-8 Plain Text
Duration : 1 h 34 min
Bit rate : 71 b/s
Count of elements : 1747
Stream size : 49.1 KiB (0%)
Language : English
Default : Yes
Forced : No





1 个附件 售价 大小 下载 时间

Bad.Eggs.2003.1080p.WEBRip.AAC2.0.x264-PlayWEB.zip 0 金币 45.34K 63 次 9天前

#1楼
发帖时间:2020-08-01 23:49:06   |   回复数:1
911degrees
隐世仙人♂
非常感谢,谢谢分享
9天前 #2楼
游客组