fg603603
武林盟主

[更 早] [欧美] [科幻] [BD-1080P] 黑洞频率/生死频率 Frequency.2000.1080p.BluRay.x264-PSYCHD 7.65GB

-->

帖子完整标题:黑洞频率/生死频率 Frequency.2000.1080p.BluRay.x264-PSYCHD 7.65GB



◎译  名 黑洞频率/生死频率/隔世救未来
◎片  名 Frequency
◎年  代 2000
◎产  地 美国
◎类  别 科幻 / 悬疑 / 犯罪
◎语  言 英语
◎上映日期 2000-04-28(美国)
◎IMDb评分 7.3/10 from 99603 users
◎IMDb链接 https://www.imdb.com/title/tt0186151/
◎豆瓣评分 8.4/10 from 87316 users
◎豆瓣链接 https://movie.douban.com/subject/1294183/
◎片  长 118分钟
◎导  演 格里高利·霍布里特 Gregory Hoblit
◎编  剧 托比·艾默里奇 Toby Emmerich
◎主  演 丹尼斯·奎德 Dennis Quaid
      吉姆·卡维泽 Jim Caviezel
      肖恩·多伊尔 Shawn Doyle
      伊丽莎白·米切尔 Elizabeth Mitchell
      诺亚·艾默里奇 Noah Emmerich
      梅利莎·埃里科 Melissa Errico
      丹尼尔·汉森 Daniel Henson
      约旦·布里奇斯 Jordan Bridges
      斯蒂芬·约菲 Stephen Joffe
      杰克·麦科马克 Jack McCormack
      彼得·麦克内尔 Peter MacNeill
      迈克尔·塞拉 Michael Cera
      玛琳·辛科 Marin Hinkle
      梅丽莎·菲茨杰拉德 Melissa Fitzgerald
      安德鲁·布劳尔 Andre Braugher
      珍妮弗·巴克斯特 Jennifer Baxter

◎标  签 科幻 | 美国 | 亲情 | 时空 | 悬疑 | 剧情 | 美国电影 | 2000

◎简  介

  约翰的父亲弗兰克(丹尼斯?奎德 Dennis Quaid 饰)死于30年前一次救火行动中。一次,翻看父亲的遗物时,约翰(詹姆斯?卡维泽 James Caviezel 饰)发现了30年前父亲使用过的一台老式无线电。在随手翻拨频段的时候,他竟然和一名年轻叫弗兰克的男子搭上了线。经过整夜长谈,约翰确定时空发生了错乱,这个弗兰克正是自己30年前的父亲。
  
  约翰兴奋异常,顺利帮助父亲躲过了30年前的那场灾难。当他一觉醒来,惊讶地发现了相框中白发苍苍的父亲,他知道自己成功了。然而让人意想不到的是,历史一切都改写。约翰的拯救了父亲,而他的母亲却死于了多年前的一起连环杀人案。当约翰通过无线电再次联系30年前的父亲,意图让父亲阻止母亲被杀时,父亲却又意外成了嫌疑犯!

◎获奖情况

  第58届金球奖 ?(2001)
  电影类最佳原创歌曲(提名) 盖斯·布洛克斯

Video
ID : 1
Format : AVC
Format/Info : Advanced Video Codec
Format profile : [email protected]
Format settings : CABAC / 5 Ref Frames
Format settings, CABAC : Yes
Format settings, ReFrames : 5 frames
Codec ID : V_MPEG4/ISO/AVC
Duration : 1 h 58 min
Bit rate : 8 566 kb/s
Width : 1 920 pixels
Height : 816 pixels
Display aspect ratio : 2.35:1
Frame rate mode : Constant
Frame rate : 23.976 (24000/1001/189150) FPS
Color space : YUV
Chroma subsampling : 4:2:0
Bit depth : 8 bits
Scan type : Progressive
Bits/(Pixel*Frame) : 0.228
Stream size : 6.96 GiB (91%)
Writing library : x264 core 118 r2085 8a62835
Encoding settings : cabac=1 / ref=5 / deblock=1:0:0 / analyse=0x3:0x113 / me=umh / subme=8 / psy=1 / psy_rd=1.00:0.00 / mixed_ref=1 / me_range=16 / chroma_me=1 / trellis=1 / 8x8dct=1 / cqm=0 / deadzone=21,11 / fast_pskip=1 / chroma_qp_offset=-2 / threads=12 / sliced_threads=0 / nr=0 / decimate=1 / interlaced=0 / bluray_compat=0 / constrained_intra=0 / bframes=3 / b_pyramid=2 / b_adapt=2 / b_bias=0 / direct=3 / weightb=1 / open_gop=0 / weightp=2 / keyint=240 / keyint_min=24 / scenecut=40 / intra_refresh=0 / rc_lookahead=50 / rc=2pass / mbtree=1 / bitrate=8566 / ratetol=1.0 / qcomp=0.60 / qpmin=0 / qpmax=69 / qpstep=4 / cplxblur=20.0 / qblur=0.5 / ip_ratio=1.40 / aq=1:1.00
Language : English
Default : Yes
Forced : No

Audio
ID : 2
Format : AC-3
Format/Info : Audio Coding 3
Commercial name : Dolby Digital
Codec ID : A_AC3
Duration : 1 h 58 min
Bit rate mode : Constant
Bit rate : 640 kb/s
Channel(s) : 6 channels
Channel(s)_Original : 2 channels
Channel layout : L R
Sampling rate : 48.0 kHz
Frame rate : 31.250 FPS (1536 SPF)
Bit depth : 16 bits
Compression mode : Lossy
Stream size : 545 MiB (7%)
Language : English
Service kind : Complete Main
Default : Yes
Forced : No

Menu
00:00:00.000 : en:00:00:00.000
00:06:36.596 : en:00:06:36.596
00:11:09.335 : en:00:11:09.335
00:16:30.823 : en:00:16:30.823
00:21:58.918 : en:00:21:58.918
00:27:01.487 : en:00:27:01.487
00:33:29.341 : en:00:33:29.341
00:43:47.859 : en:00:43:47.859
00:45:53.517 : en:00:45:53.517
00:54:05.175 : en:00:54:05.175
00:57:05.722 : en:00:57:05.722
01:06:57.647 : en:01:06:57.647
01:10:51.814 : en:01:10:51.814
01:16:56.979 : en:01:16:56.979
01:21:21.043 : en:01:21:21.043
01:25:55.951 : en:01:25:55.951
01:31:23.211 : en:01:31:23.211
01:37:28.476 : en:01:37:28.476
01:43:44.785 : en:01:43:44.785
01:51:24.945 : en:01:51:24.945
01:53:47.254 : en:01:53:47.254





1 个附件 售价 大小 下载 时间

Frequency.2000.1080p.BluRay.x264-PSYCHD.zip 0 金币 77.92K 315 次 14天前

#1楼
发帖时间:2020-09-16 21:50:29   |   回复数:0
游客组