q3r3
武林盟主

[更 早] [欧美] [其他] [BD-1080P] 夜雾杀机 The.Fog.1980.REMASTERED.1080p.BluRay.X264-AMIABLE 8.75GB

-->

帖子完整标题:夜雾杀机 The.Fog.1980.REMASTERED.1080p.BluRay.X264-AMIABLE 8.75GB



◎译  名 夜雾杀机/John Carpenter's The Fog/冤魂不息/午夜时刻/迷雾/鬼雾
◎片  名 The Fog
◎年  代 1980
◎产  地 美国
◎类  别 悬疑 / 恐怖
◎语  言 英语
◎上映日期 1980-02-08
◎IMDb评分 6.8/10 from 62311 users
◎IMDb链接 https://www.imdb.com/title/tt0080749/
◎豆瓣评分 6.5/10 from 1013 users
◎豆瓣链接 https://movie.douban.com/subject/1301548/
◎片  长 89 分钟
◎导  演 约翰·卡朋特 John Carpenter
◎编  剧 约翰·卡朋特 John Carpenter / 黛布拉·希尔 Debra Hill / 埃德加·爱伦·坡 Edgar Allan Poe
◎主  演 阿德里安娜·巴比欧 Adrienne Barbeau
      杰米·李·柯蒂斯 Jamie Lee Curtis
      珍妮特·利 Janet Leigh
      哈尔·霍尔布鲁克 Hal Holbrook
      Darwin Joston
      约翰·卡朋特 John Carpenter
      Regina Waldon
      罗伯·博汀 Rob Bottin
      John F. Goff
      Darrow Igus
      南希·凯斯 Nancy Kyes
      黛布拉·希尔 Debra Hill
      约翰·豪斯曼 John Houseman
      汤米·李·华莱士 Tommy Lee Wallace
      汤姆·阿特金斯 Tom Atkins
      Charles Cyphers
      James Canning
      Fred Franklyn
      吉姆·海尼 Jim Haynie
      乔治·“巴克”·弗劳尔 George 'Buck' Flower

◎标  签 恐怖 | 美国 | 惊悚 | 1980 | 约翰·卡朋特 | JohnCarpenter | 美国电影 | John_Carpenter

◎简  介

  100年前的北加利福尼亚的安东尼奥海滩,患有麻风病的富豪布雷克希望在此建立一个小镇,将同样患有麻风病的患者集中起来治疗。然而他的爱心并未得到应有的回报,许多觊觎布雷克财富的贪婪之徒来到这里,伺机杀害了布雷克。
  
  100年后,当小镇人民举行百年庆典时,一团神秘雾气降临小镇,布雷克及其随从的冤魂从大海深处归来,所到之处人们尽皆死亡。神父罗伯特(Hal HolbrooK 饰)无意中发现其祖父藏在教堂墙壁中的日记,终于得知曾发生在100年前的惨剧……

Video
ID : 1
Format : AVC
Format/Info : Advanced Video Codec
Format profile : [email protected]
Format settings : CABAC / 5 Ref Frames
Format settings, CABAC : Yes
Format settings, Reference frames : 5 frames
Codec ID : V_MPEG4/ISO/AVC
Duration : 1 h 29 min
Bit rate : 12.4 Mb/s
Width : 1 920 pixels
Height : 816 pixels
Display aspect ratio : 2.35:1
Frame rate mode : Constant
Frame rate : 24.000 FPS
Color space : YUV
Chroma subsampling : 4:2:0
Bit depth : 8 bits
Scan type : Progressive
Bits/(Pixel*Frame) : 0.330
Stream size : 7.61 GiB (87%)
Writing library : x264 core 157 r2935 545de2f
Encoding settings : cabac=1 / ref=5 / deblock=1:-3:-3 / analyse=0x3:0x133 / me=umh / subme=10 / psy=1 / psy_rd=1.10:0.00 / mixed_ref=1 / me_range=48 / chroma_me=1 / trellis=2 / 8x8dct=1 / cqm=0 / deadzone=21,11 / fast_pskip=0 / chroma_qp_offset=-2 / threads=24 / lookahead_threads=4 / sliced_threads=0 / nr=0 / decimate=1 / interlaced=0 / bluray_compat=0 / constrained_intra=0 / bframes=8 / b_pyramid=2 / b_adapt=2 / b_bias=0 / direct=3 / weightb=1 / open_gop=0 / weightp=2 / keyint=240 / keyint_min=24 / scenecut=40 / intra_refresh=0 / rc_lookahead=60 / rc=2pass / mbtree=1 / bitrate=12422 / ratetol=1.0 / qcomp=0.60 / qpmin=0 / qpmax=69 / qpstep=4 / cplxblur=20.0 / qblur=0.5 / ip_ratio=1.30 / aq=3:0.75
Default : Yes
Forced : No
Statistics Tags Issue : no_variable_data 1970-01-01 00:00:00 / no_variable_data 2010-02-22 21:41:29
FromStats_BitRate : 12407127
FromStats_Duration : 01:29:51.209000000
FromStats_FrameCount : 129389
FromStats_StreamSize : 8361177233

Audio
ID : 2
Format : DTS
Format/Info : Digital Theater Systems
Codec ID : A_DTS
Duration : 1 h 29 min
Bit rate mode : Constant
Bit rate : 1 509 kb/s
Channel(s) : 6 channels
Channel layout : C L R Ls Rs LFE
Sampling rate : 48.0 kHz
Frame rate : 93.750 FPS (512 SPF)
Bit depth : 24 bits
Compression mode : Lossy
Stream size : 970 MiB (11%)
Language : English
Default : Yes
Forced : No
Statistics Tags Issue : no_variable_data 1970-01-01 00:00:00 / no_variable_data 2010-02-22 21:41:29
FromStats_BitRate : 1508999
FromStats_Duration : 01:29:51.275000000
FromStats_FrameCount : 505432
FromStats_StreamSize : 1016929184

Text #1
ID : 3
Format : UTF-8
Codec ID : S_TEXT/UTF8
Codec ID/Info : UTF-8 Plain Text
Language : English
Default : No
Forced : No
Statistics Tags Issue : no_variable_data 1970-01-01 00:00:00 / no_variable_data 2010-02-22 21:41:29
FromStats_BitRate : 50
FromStats_Duration : 01:25:09.709000000
FromStats_FrameCount : 941
FromStats_StreamSize : 32127

Text #2
ID : 4
Format : UTF-8
Codec ID : S_TEXT/UTF8
Codec ID/Info : UTF-8 Plain Text
Title : SDH
Language : English
Default : No
Forced : No
Statistics Tags Issue : no_variable_data 1970-01-01 00:00:00 / no_variable_data 2010-02-22 21:41:29
FromStats_BitRate : 58
FromStats_Duration : 01:26:06.500000000
FromStats_FrameCount : 1136
FromStats_StreamSize : 37746

Menu
00:00:00.000 : en:00:00:00.000
00:03:58.333 : en:00:03:58.333
00:12:37.917 : en:00:12:37.917
00:24:59.667 : en:00:24:59.667
00:29:00.750 : en:00:29:00.750
00:33:58.125 : en:00:33:58.125
00:41:11.042 : en:00:41:11.042
00:46:38.417 : en:00:46:38.417
00:53:02.958 : en:00:53:02.958
01:03:57.708 : en:01:03:57.708
01:13:26.458 : en:01:13:26.458
01:25:45.250 : en:01:25:45.250





1 个附件 售价 大小 下载 时间

The.Fog.1980.REMASTERED.1080p.BluRay.X264-AMIABLE.zip 0 金币 89.06K 119 次 11天前

#1楼
发帖时间:2020-09-16 23:06:59   |   回复数:1
yangbo83222179
一代宗师
谢谢楼主分享
10天前 #2楼
游客组