squallzhao
武林盟主

[更 早] [欧美] [喜剧] [BD-1080P] 爱的大追踪/出什么事了大夫? Whats.Up.Doc.1972.1080p.BluRay.x264.DTS-FGT 8.75GB

-->

帖子完整标题:爱的大追踪/出什么事了大夫? Whats.Up.Doc.1972.1080p.BluRay.x264.DTS-FGT 8.75GB



◎译  名 爱的大追踪/出什么事了,大夫?/爱的大逃亡/疯狂飞车大闹唐人街
◎片  名 What's Up, Doc?
◎年  代 1972
◎产  地 美国
◎类  别 喜剧 / 爱情 / 音乐
◎语  言 英语
◎上映日期 1972-03-09
◎IMDb评分 7.7/10 from 19385 users
◎IMDb链接 https://www.imdb.com/title/tt0069495/
◎豆瓣评分 7.5/10 from 317 users
◎豆瓣链接 https://movie.douban.com/subject/1303424/
◎片  长 94 分钟
◎导  演 彼得·博格丹诺维奇 Peter Bogdanovich
◎编  剧 巴克·亨利 Buck Henry / 大卫·纽曼 David Newman / 彼得·博格丹诺维奇 Peter Bogdanovich / 罗伯特·本顿 Robert Benton
◎主  演 芭芭拉·史翠珊 Barbra Streisand
      瑞安·奥尼尔 Ryan O'Neal
      奥斯汀·潘德尔顿 Austin Pendleton
      M·埃梅特·沃尔什 M. Emmet Walsh
      杰克·帕金斯 Jack Perkins
      兰迪·奎德 Randy Quaid
      Fred Scheiwiller
      Stan Ross
      Carl Saxe
      Jerry Summers
      Peter Paul Eastman
      玛德莲·卡恩 Madeline Kahn
      约翰·拜纳 John Byner
      Mark Thompson
      乔治·莫福根 George Morfogen
      迈克尔·墨菲 Michael Murphy
      格雷厄姆·贾维斯 Graham Jarvis
      Mabel Albertson
      Joe Alfasa
      Sorrell Booke
      Don Bexley
      Eric Brotherson
      利亚姆·邓恩 Liam Dunn
      斯特凡·吉拉什 Stefan Gierasch
      约翰·席勒曼 John Hillerman
      肯尼思·马尔斯 Kenneth Mars
      Kevin O'Neal
      菲利普·罗斯 Philip Roth

◎标  签 喜剧 | 美国 | 1970s | 1972 | 彼得·博格丹诺维奇 | 美国电影 | 爱情 | PeterBogdanovich

◎简  介

  霍华德(瑞安·奥尼尔 Ryan O'Neal 饰)是一名音乐学家,他带着自己的未婚妻尤妮丝(玛德莲·卡恩 Madeline Kahn 饰)前往旧金山,霍华德发现了一块火成岩石标本,这个标本能够证明音乐的起源,霍华德想要凭借着这个标本获得拉雷比基金会颁发的奖学金。
  
  霍华德和尤妮丝住在一间名为布里斯托尔的旅店中,同样下榻酒店的,还有霍斯金斯太太(Mabel Albertson 饰)、史密斯先生(迈克尔·墨菲 Michael Murphy 饰)和霍华德的狂热追求者朱迪(芭芭拉·史翠珊 Barbra Streisand 饰)。巧合的是,他们四个人所拎的行李箱竟然一模一样。接待员弗里斯(斯特凡·吉拉什 Stefan Gierasch 饰)想要霍斯金斯太太箱子里的珠宝,间谍琼斯(菲利普·罗斯 Philip Roth 饰)觊觎史密斯先生手里的秘密文件,阴差阳错之下,一场大乱斗开始了。

Video
ID : 1
Format : AVC
Format/Info : Advanced Video Codec
Format profile : [email protected]
Format settings, CABAC : Yes
Format settings, ReFrames : 4 frames
Codec ID : V_MPEG4/ISO/AVC
Duration : 1h 33mn
Bit rate : 12.6 Mbps
Width : 1 920 pixels
Height : 1 080 pixels
Display aspect ratio : 16:9
Frame rate mode : Constant
Frame rate : 23.976 fps
Color space : YUV
Chroma subsampling : 4:2:0
Bit depth : 8 bits
Scan type : Progressive
Bits/(Pixel*Frame) : 0.253
Stream size : 8.07 GiB (92%)
Writing library : x264 core 104 r1688 0b36c6d
Encoding settings : cabac=1 / ref=4 / deblock=1:0:0 / analyse=0x3:0x113 / me=umh / subme=9 / psy=1 / psy_rd=1.00:0.00 / mixed_ref=1 / me_range=16 / chroma_me=1 / trellis=1 / 8x8dct=1 / cqm=0 / deadzone=21,11 / fast_pskip=0 / chroma_qp_offset=-2 / threads=6 / sliced_threads=0 / nr=0 / decimate=1 / interlaced=0 / constrained_intra=0 / bframes=3 / b_pyramid=2 / b_adapt=2 / b_bias=0 / direct=3 / weightb=1 / open_gop=0 / weightp=2 / keyint=250 / keyint_min=23 / scenecut=40 / intra_refresh=0 / rc_lookahead=40 / rc=2pass / mbtree=1 / bitrate=12578 / ratetol=1.0 / qcomp=0.60 / qpmin=10 / qpmax=51 / qpstep=4 / cplxblur=20.0 / qblur=0.5 / ip_ratio=1.40 / aq=1:1.10
Language : English
Default : Yes
Forced : No

Audio
ID : 2
Format : DTS
Format/Info : Digital Theater Systems
Mode : 16
Format settings, Endianness : Big
Codec ID : A_DTS
Duration : 1h 33mn
Bit rate mode : Constant
Bit rate : 768 Kbps
Channel(s) : 1 channel
Channel positions : Front: C
Sampling rate : 48.0 KHz
Frame rate : 93.750 fps (512 spf)
Bit depth : 24 bits
Compression mode : Lossy
Stream size : 516 MiB (6%)
Language : English
Default : Yes
Forced : No

Text
ID : 3
Format : UTF-8
Codec ID : S_TEXT/UTF8
Codec ID/Info : UTF-8 Plain Text
Language : English
Default : No
Forced : No





1 个附件 售价 大小 下载 时间

Whats.Up.Doc.1972.1080p.BluRay.x264.DTS-FGT.zip 0 金币 88.95K 84 次 2天前

#1楼
发帖时间:2020-10-18 09:58:15   |   回复数:0
游客组