squallzhao
武林盟主

[2012] [欧美] [动作] [BD-1080P] 侏罗纪狂鲨 Jurassic.Shark.2012.1080p.BluRay.x264.DTS-FGT 4.46GB

-->

帖子完整标题:侏罗纪狂鲨 Jurassic.Shark.2012.1080p.BluRay.x264.DTS-FGT 4.46GB



◎译  名 侏罗纪狂鲨
◎片  名 Jurassic Shark
◎年  代 2012
◎产  地 美国
◎类  别 动作 / 科幻 / 恐怖
◎语  言 英语
◎上映日期 2012
◎IMDb评分 1.5/10 from 3948 users
◎IMDb链接 https://www.imdb.com/title/tt2071491/
◎豆瓣评分 2.7/10 from 175 users
◎豆瓣链接 https://movie.douban.com/subject/11519180/
◎片  长 75分钟(美国)
◎编  剧 David A. Lloyd

◎标  签 恐怖 | 美国 | 惊悚 | 科幻 | 电影 | 我去年买了个表 | 2012 | 鲨鱼

◎简  介

  影片故事从两群人讲起,一是一群学生,另外一群人则是一伙犯罪集团,他们被一只史前巨鲨围困在了一座小岛上。岛上曾一度被用于非法钻井,油井在不经意间惊醒了这头沉睡在海底的史前鲨鱼。

Video
ID : 1
Format : AVC
Format/Info : Advanced Video Codec
Format profile : [email protected]
Format settings, CABAC : Yes
Format settings, ReFrames : 4 frames
Codec ID : V_MPEG4/ISO/AVC
Duration : 1h 18mn
Bit rate : 6 462 Kbps
Width : 1 920 pixels
Height : 1 080 pixels
Display aspect ratio : 16:9
Frame rate mode : Constant
Frame rate : 23.976 (24000/1001) fps
Original frame rate : 23.976 (23976/1000) fps
Color space : YUV
Chroma subsampling : 4:2:0
Bit depth : 8 bits
Scan type : Progressive
Bits/(Pixel*Frame) : 0.130
Stream size : 3.55 GiB (79%)
Writing library : x264 core 129 r2230 1cffe9f
Encoding settings : cabac=1 / ref=4 / deblock=1:-3:-3 / analyse=0x3:0x113 / me=umh / subme=7 / psy=1 / psy_rd=1.00:0.15 / mixed_ref=1 / me_range=16 / chroma_me=1 / trellis=1 / 8x8dct=1 / cqm=0 / deadzone=21,11 / fast_pskip=0 / chroma_qp_offset=-3 / threads=10 / lookahead_threads=1 / sliced_threads=0 / nr=0 / decimate=1 / interlaced=0 / bluray_compat=0 / constrained_intra=0 / bframes=3 / b_pyramid=2 / b_adapt=1 / b_bias=0 / direct=3 / weightb=1 / open_gop=0 / weightp=2 / keyint=250 / keyint_min=23 / scenecut=40 / intra_refresh=0 / rc_lookahead=40 / rc=crf / mbtree=1 / crf=20.0 / qcomp=0.60 / qpmin=0 / qpmax=69 / qpstep=4 / ip_ratio=1.40 / aq=1:1.00
Default : Yes
Forced : No

Audio
ID : 2
Format : DTS
Format/Info : Digital Theater Systems
Mode : 16
Format settings, Endianness : Big
Codec ID : A_DTS
Duration : 1h 18mn
Bit rate mode : Constant
Bit rate : 1 509 Kbps
Channel(s) : 6 channels
Channel positions : Front: L C R, Side: L R, LFE
Sampling rate : 48.0 KHz
Frame rate : 93.750 fps (512 spf)
Bit depth : 24 bits
Compression mode : Lossy
Stream size : 848 MiB (19%)
Language : English
Default : No
Forced : No





1 个附件 售价 大小 下载 时间

Jurassic.Shark.2012.1080p.BluRay.x264.DTS-FGT.zip 0 金币 90.74K 305 次 2天前

#1楼
发帖时间:2020-10-18 10:14:16   |   回复数:0
游客组