squallzhao
武林盟主

[更 早] [欧美] [其他] [BD-1080P] 大盗巴巴罗沙/江湖恩仇录 Barbarosa.1982.1080p.BluRay.x264.DTS-FGT 7.98GB

-->

帖子完整标题:大盗巴巴罗沙/江湖恩仇录 Barbarosa.1982.1080p.BluRay.x264.DTS-FGT 7.98GB



◎译  名 大盗巴巴罗沙/江湖恩仇录
◎片  名 Barbarosa
◎年  代 1982
◎产  地 美国
◎类  别 西部
◎语  言 英语
◎上映日期 1982-02-19
◎IMDb评分 6.4/10 from 1425 users
◎IMDb链接 https://www.imdb.com/title/tt0083619/
◎豆瓣评分 /10 from 0 users
◎豆瓣链接 https://movie.douban.com/subject/1295711/
◎片  长 90 分钟
◎导  演 弗雷德·谢皮西 Fred Schepisi
◎编  剧 威廉·D·威特利夫 William D. Wittliff
◎主  演 威利·纳尔逊 Willie Nelson
      加里·布塞 Gary Busey
      伊瑟拉·维加 Isela Vega
      吉尔伯特·罗兰 Gilbert Roland

◎标  签 西部 | 经典老片 | Fred_Schepisi | 1982 | 被忽视的片子 | 美国 | western | P-CannesD入围导演双周

◎简  介

  A young cowboy hooks up with a legendary outlaw, and before long both are on the run from the law.

Video
ID : 1
Format : AVC
Format/Info : Advanced Video Codec
Format profile : [email protected]
Format settings, CABAC : Yes
Format settings, ReFrames : 4 frames
Codec ID : V_MPEG4/ISO/AVC
Duration : 1h 29mn
Bit rate : 11.0 Mbps
Nominal bit rate : 11.5 Mbps
Width : 1 920 pixels
Height : 810 pixels
Display aspect ratio : 2.40:1
Frame rate mode : Constant
Frame rate : 23.976 (24000/1001) fps
Color space : YUV
Chroma subsampling : 4:2:0
Bit depth : 8 bits
Scan type : Progressive
Bits/(Pixel*Frame) : 0.294
Stream size : 6.87 GiB (86%)
Writing library : x264 core 148 r2694 3b70645
Encoding settings : cabac=1 / ref=4 / deblock=1:-2:-2 / analyse=0x3:0x113 / me=umh / subme=7 / psy=1 / psy_rd=1.00:0.15 / mixed_ref=1 / me_range=16 / chroma_me=1 / trellis=1 / 8x8dct=1 / cqm=0 / deadzone=21,11 / fast_pskip=1 / chroma_qp_offset=-3 / threads=40 / lookahead_threads=3 / sliced_threads=0 / nr=0 / decimate=1 / interlaced=0 / bluray_compat=0 / constrained_intra=0 / bframes=3 / b_pyramid=2 / b_adapt=2 / b_bias=0 / direct=3 / weightb=1 / open_gop=0 / weightp=2 / keyint=250 / keyint_min=25 / scenecut=40 / intra_refresh=0 / rc_lookahead=50 / rc=abr / mbtree=1 / bitrate=11500 / ratetol=1.0 / qcomp=0.60 / qpmin=0 / qpmax=69 / qpstep=4 / vbv_maxrate=31250 / vbv_bufsize=31250 / nal_hrd=none / filler=0 / ip_ratio=1.40 / aq=1:1.00
Language : English
Default : Yes
Forced : No

Audio
ID : 2
Format : DTS
Format/Info : Digital Theater Systems
Mode : 16
Format settings, Endianness : Big
Codec ID : A_DTS
Duration : 1h 29mn
Bit rate mode : Constant
Bit rate : 1 509 Kbps
Channel(s) : 2 channels
Channel positions : Front: L R
Sampling rate : 48.0 KHz
Frame rate : 93.750 fps (512 spf)
Bit depth : 24 bits
Compression mode : Lossy
Stream size : 970 MiB (12%)
Language : English
Default : Yes
Forced : No

Menu
00:00:00.000 : en:Chapter 01
00:02:56.676 : en:Chapter 02
00:09:44.083 : en:Chapter 03
00:13:36.649 : en:Chapter 04
00:20:55.963 : en:Chapter 05
00:25:31.863 : en:Chapter 06
00:32:02.420 : en:Chapter 07
00:38:41.360 : en:Chapter 08
00:42:41.934 : en:Chapter 09
00:52:34.317 : en:Chapter 10
01:02:49.182 : en:Chapter 11
01:10:03.073 : en:Chapter 12
01:20:31.159 : en:Chapter 13
01:24:02.203 : en:Chapter 14
01:27:06.512 : en:Chapter 15





1 个附件 售价 大小 下载 时间

Barbarosa.1982.1080p.BluRay.x264.DTS-FGT.zip 0 金币 81.22K 147 次 6天前

#1楼
发帖时间:2020-10-18 10:24:43   |   回复数:0
游客组