squallzhao
武林盟主

[2010] [其他] [剧情] [BD-1080P] 合法副本 Certified.Copy.2010.Criterion.Collection.1080p.BluRay.x264.DTS-WiKi 8.04GB

-->

帖子完整标题:合法副本 Certified.Copy.2010.Criterion.Collection.1080p.BluRay.x264.DTS-WiKi 8.04GB



◎译  名 合法副本/Certified Copy/似是有缘人(港)/原型复制/原样复制/完美仿品/爱情对白(台)
◎片  名 Copie conforme
◎年  代 2010
◎产  地 法国,意大利,比利时,伊朗
◎类  别 剧情
◎语  言 法语,英语,意大利语
◎上映日期 2010-05-18(戛纳电影节) / 2010-05-19(法国)
◎IMDb评分 7.3/10 from 20718 users
◎IMDb链接 https://www.imdb.com/title/tt1020773/
◎豆瓣评分 7.9/10 from 14061 users
◎豆瓣链接 https://movie.douban.com/subject/2973543/
◎片  长 106分钟
◎导  演 阿巴斯·基亚罗斯塔米 Abbas Kiarostami
◎编  剧 阿巴斯·基亚罗斯塔米 Abbas Kiarostami / 卡罗琳·埃利亚凯夫 Caroline Eliacheff / 马苏梅·拉希吉 Massoumeh Lahidji
◎主  演 朱丽叶·比诺什 Juliette Binoche
      威廉姆·西梅尔 William Shimell
      让-克洛德·卡里埃 Jean-Claude Carrière
      阿加特·纳坦松 Agathe Natanson
      詹纳·贾凯蒂 Gianna Giachetti
      阿德里安·穆尔 Adrian Moore
      安杰洛·巴尔巴加洛 Angelo Barbagallo
      安德烈亚·劳伦齐 Andrea Laurenzi
      菲利波·特罗亚诺 Filippo Trojano
      曼努埃拉·巴尔西梅利 Manuela Balsimelli

◎标  签 法国 | 伊朗 | 2010 | 文艺 | 剧情 | 爱情 | 意大利 | 婚姻

◎简  介

  英国作家詹姆斯·米勒(威廉·施梅尔 William Shimell 饰)来到意大利城市托斯卡纳为新作《合法副本》举办讲座。他与读者讨论书中的观点:关于艺术创作真实性的议论是毫无必要的,因为复制品本身即是原作,原作也是由其他作品复制而来。一个做古董买卖的法国女人(朱丽叶· 比诺什 Juliette Binoche 饰)带着11岁的儿子参与了讨论会,想为刚买的书索要签名。中途因为儿子饿了她提前离开,临走时留下了一个电话号码。
  
  米勒和女人在她的古董店再次相遇,他们驱车去郊外看一样东西。她开着车载着米勒无目的游荡,谈论书的主题,参观博物馆,谈论她叛逆的儿子,两人一路上争吵不休。在一个咖啡馆,女老板以为米勒是女人的丈夫,就开始和她围绕米勒讨论起婚姻。于是他们将错就错,米勒开始扮演女人的丈夫,两人约会,去宾馆。但是副本只是复制,而非原作,米勒结束复制身份,独自离开了郊外。
  
  比诺什凭借此片获得第63届戛纳电影节主竞赛单元最佳女演员奖。

◎获奖情况

  第63届戛纳电影节 ?(2010)
  主竞赛单元金棕榈奖(提名) 阿巴斯·基亚罗斯塔米
  主竞赛单元最佳女演员 朱丽叶·比诺什
  
  第10届华盛顿影评人协会奖 ?(2011)
  最佳外语片(提名)

Format : Matroska
Format version : Version 4 / Version 2
File size : 7.95 GiB
Duration : 1h 46mn
Overall bit rate : 10.7 Mbps
Encoded date : UTC 2010-02-22 21:41:31
Writing application : mkvmerge v5.9.0 (\'On The Loose\') built on Dec 9 2012 15:37:01
Writing library : libebml v1.3.0 + libmatroska v1.4.0

Video
ID : 1
Format : AVC
Format/Info : Advanced Video Codec
Format profile : [email protected]
Format settings, CABAC : Yes
Format settings, ReFrames : 4 frames
Codec ID : V_MPEG4/ISO/AVC
Duration : 1h 46mn
Bit rate : 9 141 Kbps
Width : 1 920 pixels
Height : 1 036 pixels
Display aspect ratio : 1.85:1
Frame rate mode : Constant
Frame rate : 23.976 fps
Color space : YUV
Chroma subsampling : 4:2:0
Bit depth : 8 bits
Scan type : Progressive
Bits/(Pixel*Frame) : 0.192
Stream size : 6.66 GiB (84%)
Writing library : x264 core 129 r2230+696+35 805d074 tMod [[email protected] X86_64]
Encoding settings : cabac=1 / ref=4 / deblock=1:-3:-3 / analyse=0x3:0x133 / me=umh / subme=10 / psy=1 / fade_compensate=0.00 / psy_rd=1.05:0.05 / mixed_ref=1 / me_range=48 / chroma_me=1 / trellis=2 / 8x8dct=1 / cqm=0 / deadzone=21,11 / fast_pskip=0 / chroma_qp_offset=-3 / threads=12 / lookahead_threads=2 / sliced_threads=0 / nr=0 / decimate=1 / interlaced=0 / bluray_compat=0 / constrained_intra=0 / fgo=0 / bframes=8 / b_pyramid=2 / b_adapt=2 / b_bias=0 / direct=3 / weightb=1 / open_gop=0 / weightp=2 / keyint=250 / keyint_min=23 / scenecut=40 / intra_refresh=0 / rc=2pass / mbtree=0 / bitrate=9141 / ratetol=1.0 / qcomp=0.60 / qpmin=0 / qpmax=69 / qpstep=4 / cplxblur=20.0 / qblur=0.5 / ip_ratio=1.40 / pb_ratio=1.30 / aq=3:0.90
Language : English
Default : Yes
Forced : No

Audio
ID : 2
Format : DTS
Format/Info : Digital Theater Systems
Mode : 16
Format settings, Endianness : Big
Codec ID : A_DTS
Duration : 1h 46mn
Bit rate mode : Constant
Bit rate : 1 509 Kbps
Channel(s) : 6 channels
Channel positions : Front: L C R, Side: L R, LFE
Sampling rate : 48.0 KHz
Bit depth : 24 bits
Compression mode : Lossy
Stream size : 1.13 GiB (14%)
Language : French
Default : Yes
Forced : No

Text
ID : 3
Format : UTF-8
Codec ID : S_TEXT/UTF8
Codec ID/Info : UTF-8 Plain Text
Title : ENG_SDH
Language : English
Default : Yes
Forced : No

Menu
00:00:00.000 : en:Chapter 01
00:00:11.651 : en:Chapter 02
00:02:18.152 : en:Chapter 03
00:09:59.738 : en:Chapter 04
00:15:34.656 : en:Chapter 05
00:19:56.501 : en:Chapter 06
00:32:19.869 : en:Chapter 07
00:36:42.423 : en:Chapter 08
00:41:29.918 : en:Chapter 09
00:48:52.735 : en:Chapter 10
00:55:59.203 : en:Chapter 11
00:59:27.328 : en:Chapter 12
01:03:10.509 : en:Chapter 13
01:08:53.560 : en:Chapter 14
01:14:52.752 : en:Chapter 15
01:28:09.548 : en:Chapter 16
01:34:56.205 : en:Chapter 17
01:44:20.685 : en:Chapter 18
01:47:00.845 : en:Chapter 19





1 个附件 售价 大小 下载 时间

Certified.Copy.2010.Criterion.Collection.1080p.BluRay.x264.DTS-WiKi.zip 0 金币 81.98K 140 次 2天前

#1楼
发帖时间:2020-10-18 11:31:53   |   回复数:0
游客组