squallzhao
武林盟主

[更 早] [其他] [喜剧] [BD-1080P] 最佳拍檔 Aces.Go.Places.1982.1080p.BluRay.x264.DTS-WiKi 10.66GB

-->

帖子完整标题:最佳拍檔 Aces.Go.Places.1982.1080p.BluRay.x264.DTS-WiKi 10.66GB



◎译  名 最佳拍档/Aces Go Places/Mad Mission/光头神探贼状元/最佳拍档之光头神探
◎片  名 最佳拍檔
◎年  代 1982
◎产  地 中国香港
◎类  别 喜剧 / 动作
◎语  言 粤语
◎上映日期 1982-01-16(中国香港)
◎IMDb评分 6.8/10 from 1323 users
◎IMDb链接 https://www.imdb.com/title/tt0084955/
◎豆瓣评分 7.6/10 from 24739 users
◎豆瓣链接 https://movie.douban.com/subject/1306011/
◎片  长 93 分钟
◎导  演 曾志伟 Eric Tsang
◎编  剧 黄百鸣 Raymond Wong
◎主  演 许冠杰 Samuel Hui
      麦嘉 Karl Maka
      张艾嘉 Sylvia Chang
      石天 Dean Shek
      古嘉露 Carroll Gordon
      徐克 Hark Tsui
      曹达华 Tat-wah Cho
      林子祥 George Lam
      黄百鸣 Raymond Wong
      陈星 Sing Chen
      吴浣仪 Yuen Yee Ng
      陈令智 Lindzay Chan
      余慕莲 Mo-Lin Yu
      冯敬文 Ging Man Fung
      何柏光 Pak-Kwong Ho
      金彪 Biu Gam
      李鹏飞 Pang-Fei Lee
      彭润祥 Yun-chiang Peng
      冯润泉 Yun-Chuen Fung
      泰山 San Tai
      成运安 Shing Gwan-On
      杜少明 Siu-Ming To
      戚毅雄 Ngai-Hung Chik

◎标  签 喜剧 | 香港 | 许冠杰 | 香港电影 | 张艾嘉 | 动作 | 最佳拍档 | 搞笑

◎简  介

  飞贼黑猫(许冠杰 饰)抢夺国际犯罪组织的钻石后借助多种工具溜之大吉,黑猫在现场遗留的白手套让香港警方误认为作案者是国际大盗“白手套”,警方请到追捕白手套多年的美国光头神探(麦嘉 饰)查案,并派出干练女警何东诗(张艾嘉 饰)协助。另一方面,钻石主人——意大利黑帮要求白手套正身抵港取回钻石。
  
  光头神探与黑猫不打不相识,威逼利诱之下,黑猫决定协助神探拿获白手套。三人小组为找回遗失的钻石盲打误撞惹来连串麻烦,黑猫终于拿到钻石之际,潜伏的白手套也同时出现了……

◎获奖情况

  第19届台北金马影展 ?(1982)
  金马奖最佳剪辑(提名) 周国忠
  
  第2届香港电影金像奖 ?(1983)
  最佳男主角 麦嘉
  最佳女主角(提名) 张艾嘉
  最佳原创电影音乐(提名) 泰迪·罗宾
  最佳原创电影歌曲(提名) 许冠杰

Format : Matroska
Format version : Version 2
File size : 10.6 GiB
Duration : 1h 33mn
Overall bit rate : 16.1 Mbps
Encoded date : UTC 2014-08-06 13:36:48
Writing application : mkvmerge v5.8.0 (\'No Sleep / Pillow\') built on Sep 2 2012 15:37:04
Writing library : libebml v1.2.3 + libmatroska v1.3.0

Video
ID : 1
Format : AVC
Format/Info : Advanced Video Codec
Format profile : [email protected]
Format settings, CABAC : Yes
Format settings, ReFrames : 5 frames
Muxing mode : Header stripping
Codec ID : V_MPEG4/ISO/AVC
Duration : 1h 33mn
Bit rate : 14.0 Mbps
Width : 1 920 pixels
Height : 814 pixels
Display aspect ratio : 2.35:1
Frame rate mode : Constant
Frame rate : 23.976 fps
Color space : YUV
Chroma subsampling : 4:2:0
Bit depth : 8 bits
Scan type : Progressive
Bits/(Pixel*Frame) : 0.374
Stream size : 8.94 GiB (85%)
Title : x264_L4.1 @ 14Mbps
Writing library : x264 core 124 r2197+666+27 2b69816 tMod [[email protected]:2:0 X86]
Encoding settings : cabac=1 / ref=5 / deblock=1:-3:-3 / analyse=0x3:0x133 / me=tesa / subme=11 / psy=1 / fade_compensate=0.00 / psy_rd=1.15:0.15 / mixed_ref=1 / me_range=32 / chroma_me=1 / trellis=2 / 8x8dct=1 / cqm=0 / deadzone=21,11 / fast_pskip=0 / chroma_qp_offset=-3 / threads=12 / sliced_threads=0 / nr=0 / decimate=0 / interlaced=0 / bluray_compat=0 / constrained_intra=0 / fgo=0 / bframes=9 / b_pyramid=2 / b_adapt=2 / b_bias=0 / direct=3 / weightb=1 / open_gop=0 / weightp=2 / keyint=250 / keyint_min=23 / scenecut=40 / intra_refresh=0 / rc_lookahead=140 / rc=2pass / mbtree=1 / bitrate=14000 / ratetol=1.0 / qcomp=0.65 / qpmin=0 / qpmax=69 / qpstep=4 / cplxblur=20.0 / qblur=0.5 / vbv_maxrate=38000 / vbv_bufsize=30000 / nal_hrd=none / ip_ratio=1.40 / aq=1:0.60
Language : Chinese
Default : Yes
Forced : No
Matrix coefficients : BT.709

Audio #1
ID : 2
Format : DTS
Format/Info : Digital Theater Systems
Mode : 16
Format settings, Endianness : Big
Muxing mode : Header stripping
Codec ID : A_DTS
Duration : 1h 33mn
Bit rate mode : Constant
Bit rate : 1 509 Kbps
Channel(s) : 6 channels
Channel positions : Front: L C R, Side: L R, LFE
Sampling rate : 48.0 KHz
Bit depth : 24 bits
Compression mode : Lossy
Stream size : 1 010 MiB (9%)
Title : Cantonese DTS 5.1 @ 1.5 Mbps
Language : Chinese
Default : Yes
Forced : No

Audio #2
ID : 3
Format : AC-3
Format/Info : Audio Coding 3
Mode extension : CM (complete main)
Format settings, Endianness : Big
Muxing mode : Header stripping
Codec ID : A_AC3
Duration : 1h 33mn
Bit rate mode : Constant
Bit rate : 640 Kbps
Channel(s) : 6 channels
Channel positions : Front: L C R, Side: L R, LFE
Sampling rate : 48.0 KHz
Bit depth : 16 bits
Compression mode : Lossy
Stream size : 429 MiB (4%)
Title : Mandarin Dolby Digital 5.1 @ 640 Kbps
Language : Chinese
Default : No
Forced : No

Text #1
ID : 4
Format : UTF-8
Codec ID : S_TEXT/UTF8
Codec ID/Info : UTF-8 Plain Text
Title : English
Language : English
Default : Yes
Forced : No

Text #2
ID : 5
Format : UTF-8
Codec ID : S_TEXT/UTF8
Codec ID/Info : UTF-8 Plain Text
Title : Mandarin
Language : Chinese
Default : No
Forced : No

Text #3
ID : 6
Format : UTF-8
Codec ID : S_TEXT/UTF8
Codec ID/Info : UTF-8 Plain Text
Title : Cantonese
Language : Chinese
Default : No
Forced : No

Menu
00:00:00.000 : zh:00:00:00.000
00:04:36.234 : zh:00:04:36.234
00:09:10.467 : zh:00:09:10.467
00:14:28.367 : zh:00:14:28.367
00:19:34.840 : zh:00:19:34.840
00:24:51.407 : zh:00:24:51.407
00:28:58.695 : zh:00:28:58.695
00:31:26.176 : zh:00:31:26.176
00:34:51.673 : zh:00:34:51.673
00:38:31.100 : zh:00:38:31.100
00:44:31.043 : zh:00:44:31.043
00:48:56.392 : zh:00:48:56.392
00:52:31.940 : zh:00:52:31.940
00:56:09.658 : zh:00:56:09.658
01:02:06.598 : zh:01:02:06.598
01:08:33.401 : zh:01:08:33.401
01:13:59.393 : zh:01:13:59.393
01:20:15.436 : zh:01:20:15.436
01:23:45.145 : zh:01:23:45.145
01:29:42.627 : zh:01:29:42.627





1 个附件 售价 大小 下载 时间

Aces.Go.Places.1982.1080p.BluRay.x264.DTS-WiKi.zip 0 金币 108.13K 266 次 2天前

#1楼
发帖时间:2020-10-18 11:43:45   |   回复数:0
游客组