squallzhao
武林盟主

[2014] [日本] [剧情] [BD-1080P] 想要拥抱你 I.Just.Wanna.Hug.You.2014.JAPANESE.1080p.BluRay.x264-WiKi 11.78GB

-->

帖子完整标题:想要拥抱你 I.Just.Wanna.Hug.You.2014.JAPANESE.1080p.BluRay.x264-WiKi 11.78GB



◎译  名 想要拥抱你/I Just Wanna Hug You/只想拥抱你(台)
◎片  名 抱きしめたい -真実の物語-
◎年  代 2014
◎产  地 日本
◎类  别 剧情 / 爱情
◎语  言 日语
◎上映日期 2014-02-01(日本)
◎IMDb评分 6.7/10 from 301 users
◎IMDb链接 https://www.imdb.com/title/tt2714934/
◎豆瓣评分 7.3/10 from 9774 users
◎豆瓣链接 https://movie.douban.com/subject/21335021/
◎片  长 122分钟
◎导  演 盐田明彦 Akihiko Shiota
◎编  剧 齐藤浩史 Hiroshi Sait? / 盐田明彦 Akihiko Shiota
◎主  演 北川景子 Keiko Kitagawa
      锦户亮 Ryo Nishikido
      上地雄辅 Y?suke Kamiji
      斋藤工 Takumi Sait?
      平山绫 Aya Hirayama
      佐藤江梨子 Eriko Sat?
      佐藤惠 Megumi Sat?
      洼田正孝 Masataka Kubota
      角替和枝 Kazue Tsunogae
      国村隼 Jun Kunimura
      风吹淳 Jun Fubuki
      二宫庆多 Keita Ninomiya
      喜多阳子 Kita Youko

◎标  签 日本 | 爱情 | 纯爱 | 2014 | 温情 | 感动 | 温暖 | 文艺

◎简  介

  故事发生在远在北海道的网走市,平凡的出租车司机小柳雅己(锦户亮 饰)在市民体育馆邂逅了坐在轮椅上的美丽女孩山本司(北川景子 饰),对方天真而倔强的神情给他留下深刻的印象。一来二去,小柳和小司渐渐熟稔。小司在高中时代遭遇车祸,由此导致左半边身体瘫痪,此外大脑也受到损伤,经常会忘记不久前发生的事情。小柳同情女孩的遭遇,也渐渐为对方所吸引,甚至为此不惜和正在交往的女友分手。他们的恋爱之路注定充满考验与挫折,现实中的种种难题,双方父母的反对,却无法阻止他们走到一起。他们历经千难万险,即将得到爱情的结晶,但是命运之神的考验并未就此结束……
  
  本片根据真实人物和事件改编。

Format : Matroska
Format version : Version 4 / Version 2
File size : 11.7 GiB
Duration : 2h 2mn
Overall bit rate : 13.6 Mbps
Movie name : Jubowo @ WiKi
Encoded date : UTC 2014-08-11 12:53:22
Writing application : mkvmerge v6.8.0 (\'Theme for Great Cities\') 64bit built on Mar 2 2014 21:34:26
Writing library : libebml v1.3.0 + libmatroska v1.4.1
Attachment : Yes

Video
ID : 1
Format : AVC
Format/Info : Advanced Video Codec
Format profile : [email protected]
Format settings, CABAC : Yes
Format settings, ReFrames : 4 frames
Codec ID : V_MPEG4/ISO/AVC
Duration : 2h 2mn
Bit rate : 13.0 Mbps
Width : 1 920 pixels
Height : 1 038 pixels
Display aspect ratio : 1.85:1
Frame rate mode : Constant
Frame rate : 23.976 fps
Color space : YUV
Chroma subsampling : 4:2:0
Bit depth : 8 bits
Scan type : Progressive
Bits/(Pixel*Frame) : 0.272
Stream size : 10.9 GiB (93%)
Writing library : x264 core 129 r2245+704+36 8e61944 tMod+MixAQ [[email protected]:2:0 X86_64]
Encoding settings : cabac=1 / ref=4 / deblock=1:-3:-3 / analyse=0x3:0x133 / me=umh / subme=11 / psy=1 / fade_compensate=0.00 / psy_rd=1.05:0.10 / mixed_ref=1 / me_range=64 / chroma_me=1 / trellis=2 / 8x8dct=1 / cqm=0 / deadzone=21,11 / fast_pskip=0 / chroma_qp_offset=-3 / threads=18 / lookahead_threads=3 / sliced_threads=0 / nr=0 / decimate=0 / interlaced=0 / bluray_compat=0 / constrained_intra=0 / fgo=0 / bframes=8 / b_pyramid=2 / b_adapt=2 / b_bias=0 / direct=3 / weightb=1 / open_gop=0 / weightp=2 / keyint=250 / keyint_min=23 / scenecut=40 / intra_refresh=0 / rc_lookahead=80 / rc=2pass / mbtree=1 / bitrate=13000 / ratetol=1.0 / qcomp=0.70 / qpmin=0 / qpmax=69 / qpstep=4 / cplxblur=20.0 / qblur=0.5 / ip_ratio=1.40 / aq=3 / aq-strength=0.85 / aq-sensitivity=10.00 / aq-ifactor=1.00 / aq-pfactor=1.00 / aq-bfactor=1.00 / aq2=0
Language : Japanese
Default : Yes
Forced : No

Audio
ID : 2
Format : AC-3
Format/Info : Audio Coding 3
Mode extension : CM (complete main)
Format settings, Endianness : Big
Codec ID : A_AC3
Duration : 2h 2mn
Bit rate mode : Constant
Bit rate : 640 Kbps
Channel(s) : 6 channels
Channel positions : Front: L C R, Side: L R, LFE
Sampling rate : 48.0 KHz
Bit depth : 16 bits
Compression mode : Lossy
Stream size : 561 MiB (5%)
Language : Japanese
Default : Yes
Forced : No

Text #1
ID : 3
Format : ASS
Codec ID : S_TEXT/ASS
Codec ID/Info : Advanced Sub Station Alpha
Compression mode : Lossless
Title : Simplified
Language : Chinese
Default : Yes
Forced : No

Text #2
ID : 4
Format : ASS
Codec ID : S_TEXT/ASS
Codec ID/Info : Advanced Sub Station Alpha
Compression mode : Lossless
Title : Traditional
Language : Chinese
Default : No
Forced : No

Menu
00:00:00.000 : en:00:00:00.000
00:10:22.496 : en:00:10:22.496
00:19:12.734 : en:00:19:12.734
00:31:51.200 : en:00:31:51.200
00:41:12.344 : en:00:41:12.344
00:52:35.610 : en:00:52:35.610
01:04:15.768 : en:01:04:15.768
01:17:52.084 : en:01:17:52.084
01:25:16.027 : en:01:25:16.027
01:38:25.065 : en:01:38:25.065
01:49:26.059 : en:01:49:26.059
01:58:20.635 : en:01:58:20.635
02:02:28.341 : en:02:02:28.341





1 个附件 售价 大小 下载 时间

I.Just.Wanna.Hug.You.2014.JAPANESE.1080p.BluRay.x264-WiKi.zip 0 金币 119.35K 280 次 2天前

#1楼
发帖时间:2020-10-18 11:47:00   |   回复数:0
游客组