q3r3
武林盟主

[2015] [其他] [剧情] [BD-1080P] 伊扎克·拉宾的最后一天 Rabin.The.Last.Day.2015.LIMITED.1080p.BluRay.x264-USURY 12.02GB

-->

帖子完整标题:伊扎克·拉宾的最后一天 Rabin.The.Last.Day.2015.LIMITED.1080p.BluRay.x264-USURY 12.02GB



◎译  名 伊扎克·拉宾的最后一天/Le dernier jour d'Yitzhak Rabin/Rabin, the Last Day/拉宾的最后岁月(港)
◎片  名 ????, ???? ??????
◎年  代 2015
◎产  地 以色列
◎类  别 剧情 / 历史
◎语  言 英语,希伯来语
◎上映日期 2015-11-05
◎IMDb评分 6/10 from 356 users
◎IMDb链接 https://www.imdb.com/title/tt4935282/
◎豆瓣评分 6.6/10 from 59 users
◎豆瓣链接 https://movie.douban.com/subject/26260824/
◎片  长 153分钟
◎导  演 阿莫斯·吉泰 Amos Gitai
◎编  剧 阿莫斯·吉泰 Amos Gitai / Marie-Jose Sanselme
◎主  演 罗坦·凯南 Rotem Keinan

◎标  签 以色列 | 政治 | 2015 | 阿莫斯·吉泰 | 以色列电影 | 纪录片 | 威尼斯电影节 | 历史

◎简  介

  影片聚焦以色列历史上的悲剧事件:工党首相伊扎克·拉宾被一位年轻的右翼激进分子刺杀,目的在于破坏以色列与巴勒斯坦的和平进程。

◎获奖情况

  第72届威尼斯电影节 ?(2015)
  主竞赛单元金狮奖(提名) 阿莫斯·吉泰

Video
ID : 1
Format : AVC
Format/Info : Advanced Video Codec
Format profile : [email protected]
Format settings : CABAC / 4 Ref Frames
Format settings, CABAC : Yes
Format settings, Reference frames : 4 frames
Codec ID : V_MPEG4/ISO/AVC
Duration : 2 h 36 min
Bit rate : 9 494 kb/s
Width : 1 920 pixels
Height : 1 040 pixels
Display aspect ratio : 1.85:1
Frame rate mode : Constant
Frame rate : 23.976 FPS
Color space : YUV
Chroma subsampling : 4:2:0
Bit depth : 8 bits
Scan type : Progressive
Bits/(Pixel*Frame) : 0.198
Stream size : 10.4 GiB (86%)
Writing library : x264 core 148 r2692 64f4e24
Encoding settings : cabac=1 / ref=4 / deblock=1:0:0 / analyse=0x3:0x133 / me=umh / subme=9 / psy=1 / psy_rd=1.00:0.00 / mixed_ref=1 / me_range=16 / chroma_me=1 / trellis=1 / 8x8dct=1 / cqm=0 / deadzone=21,11 / fast_pskip=0 / chroma_qp_offset=-2 / threads=32 / lookahead_threads=2 / sliced_threads=0 / nr=0 / decimate=1 / interlaced=0 / bluray_compat=0 / constrained_intra=0 / bframes=3 / b_pyramid=2 / b_adapt=2 / b_bias=0 / direct=3 / weightb=1 / open_gop=0 / weightp=2 / keyint=250 / keyint_min=23 / scenecut=40 / intra_refresh=0 / rc_lookahead=50 / rc=2pass / mbtree=1 / bitrate=9494 / ratetol=1.0 / qcomp=0.60 / qpmin=0 / qpmax=69 / qpstep=4 / cplxblur=20.0 / qblur=0.5 / ip_ratio=1.40 / aq=1:1.00
Language : English
Default : Yes
Forced : No

Audio
ID : 2
Format : DTS
Format/Info : Digital Theater Systems
Codec ID : A_DTS
Duration : 2 h 36 min
Bit rate mode : Constant
Bit rate : 1 509 kb/s
Channel(s) : 6 channels
Channel layout : C L R Ls Rs LFE
Sampling rate : 48.0 kHz
Frame rate : 93.750 FPS (512 SPF)
Bit depth : 24 bits
Compression mode : Lossy
Stream size : 1.65 GiB (14%)
Language : Hebrew
Default : Yes
Forced : No

Text
ID : 3
Format : UTF-8
Codec ID : S_TEXT/UTF8
Codec ID/Info : UTF-8 Plain Text
Duration : 2 h 27 min
Bit rate : 65 b/s
Count of elements : 1859
Stream size : 71.4 KiB (0%)
Title : forced
Language : English
Default : Yes
Forced : Yes

Menu
00:00:00.000 : en:00:00:00.000
00:16:20.938 : en:00:16:20.938
00:34:18.390 : en:00:34:18.390
00:48:41.460 : en:00:48:41.460
01:14:32.301 : en:01:14:32.301
01:30:16.745 : en:01:30:16.745
01:43:00.341 : en:01:43:00.341
02:03:34.115 : en:02:03:34.115
02:13:26.165 : en:02:13:26.165
02:25:33.141 : en:02:25:33.141





1 个附件 售价 大小 下载 时间

Rabin.The.Last.Day.2015.LIMITED.1080p.BluRay.x264-USURY.zip 0 金币 61.64K 182 次 2天前

#1楼
发帖时间:2020-10-18 11:52:00   |   回复数:0
游客组