fg603603
武林盟主

[2017] [其他] [恐怖] [BD-1080P] 颤栗汪洋3 Open.Water.3.Cage.Dive.2017.1080p.BluRay.x264.DTS-FGT 6.32GB

-->

帖子完整标题:颤栗汪洋3 Open.Water.3.Cage.Dive.2017.1080p.BluRay.x264.DTS-FGT 6.32GB



◎译  名 颤栗汪洋3/Under The Deep
◎片  名 Open Water 3: Cage Dive
◎年  代 2017
◎产  地 澳大利亚
◎类  别 恐怖
◎语  言 英语
◎上映日期 2017-08-18(土耳其)
◎IMDb评分 4.2/10 from 3828 users
◎IMDb链接 https://www.imdb.com/title/tt4126568/
◎豆瓣评分 3.9/10 from 293 users
◎豆瓣链接 https://movie.douban.com/subject/26892964/
◎片  长 80分钟

◎标  签 惊悚 | 澳大利亚 | 灾难 | 2017 | 剧情 | 恐怖 | 电影 | 澳大利亚电影

◎简  介

  三位朋友,拍摄一场极限真人秀的录像带,进入了鲨鱼笼潜水,但是没想到,很快会变成一场灾难性的转折,把他们留在巨大的白色鲨鱼出没的水域,把他们的录像变成一本关于生存和死亡的冷血日记。

Video
ID : 1
Format : AVC
Format/Info : Advanced Video Codec
Format profile : [email protected]
Format settings, CABAC : Yes
Format settings, ReFrames : 4 frames
Codec ID : V_MPEG4/ISO/AVC
Duration : 1 h 20 min
Bit rate : 9 486 kb/s
Width : 1 920 pixels
Height : 1 080 pixels
Display aspect ratio : 16:9
Frame rate mode : Constant
Frame rate : 23.976 (24000/1001/189150) FPS
Color space : YUV
Chroma subsampling : 4:2:0
Bit depth : 8 bits
Scan type : Progressive
Bits/(Pixel*Frame) : 0.191
Stream size : 5.35 GiB (85%)
Title : Open.Water.3.Cage.Dive.2017.1080p.BluRay.x264.DTS-FGT
Language : English
Default : Yes
Forced : No

Audio
ID : 2
Format : DTS
Format/Info : Digital Theater Systems
Mode : 16
Format settings, Endianness : Big
Codec ID : A_DTS
Duration : 1 h 20 min
Bit rate mode : Constant
Bit rate : 1 509 kb/s
Channel(s) : 6 channels
Channel positions : Front: L C R, Side: L R, LFE
Sampling rate : 48.0 kHz
Frame rate : 93.750 FPS (512 spf)
Bit depth : 24 bits
Compression mode : Lossy
Stream size : 871 MiB (13%)
Title : Open.Water.3.Cage.Dive.2017.1080p.BluRay.x264.DTS-FGT
Language : English
Default : No
Forced : No

Menu
00:00:00.000 : en:
00:04:34.107 : en:
00:09:04.210 : en:
00:12:17.570 : en:
00:17:31.801 : en:
00:22:25.094 : en:
00:27:29.314 : en:
00:32:06.591 : en:
00:35:51.900 : en:
00:40:26.674 : en:
00:44:23.786 : en:
00:49:00.521 : en:
00:54:16.044 : en:
01:01:30.937 : en:
01:05:55.577 : en:
01:09:00.803 : en:





1 个附件 售价 大小 下载 时间

Open.Water.3.Cage.Dive.2017.1080p.BluRay.x264.DTS-FGT.zip 0 金币 63.88K 140 次 2天前

#1楼
发帖时间:2020-11-22 09:43:32   |   回复数:0
游客组