fg603603
武林盟主

[2012] [欧美] [动作] [BD-1080P] 光晕4:航向黎明号/光环4 Halo.4.Forward.Unto.Dawn.2012.1080p.BluRay.x264.DTS-FGT 9.14GB

-->

帖子完整标题:光晕4:航向黎明号/光环4 Halo.4.Forward.Unto.Dawn.2012.1080p.BluRay.x264.DTS-FGT 9.14GB



◎译  名 光晕4:航向黎明号/光环4
◎片  名 Halo 4: Forward Unto Dawn
◎年  代 2012
◎产  地 美国
◎类  别 动作 / 科幻 / 冒险
◎语  言 英语
◎上映日期 2012-10-05
◎IMDb评分 6.9/10 from 23354 users
◎IMDb链接 https://www.imdb.com/title/tt2262308/
◎豆瓣评分 6.8/10 from 17045 users
◎豆瓣链接 https://movie.douban.com/subject/11502889/
◎片  长 91分钟
◎导  演 斯特瓦特·亨德尔 Stewart Hendler
◎主  演 汤姆·格林 Tom Green
      安娜·帕波维尔 Anna Popplewell
      丹尼尔·库德摩尔 Daniel Cudmore
      阿耶莱特·祖里尔 Ayelet Zurer
      麦克·多普德 Mike Dopud
      周逸之 Osric Chau
      Kat de Lieva
      汤姆·格林 Thom Green
      马克斯·卡维尔 Max Carver
      泰·奥尔森 Ty Olsson
      弗兰克·奥康纳 Frank O'Connor

◎标  签 科幻 | 游戏改编 | 美国 | Halo | 战争 | 2012 | 游戏 | 美国电影

◎简  介

  在未来的约500年后,人类社会高度发展,并已实现向外太空的殖民。而在这一过程中,新的危机威胁着人类的存在。此时此刻,托马斯·拉斯基(汤姆·格兰 Tom Green 饰)还只是一名殖民星球军事学院的学生,他与迪娜(Kat de Lieva 饰)、Sully(Masam Holden 饰)每日进行艰苦严苛的训练,在此期间他一面饱受神秘疱疹的困扰,一面又对战争的本质产生之一。日常与身为地狱伞兵的哥哥通话给他仅有的安慰。直到某天,哥哥战死沙场,托马斯的去留也到了决断时刻。这一夜,未知的外星生物入侵学院,造成巨大的伤亡。危难时刻,战场之神士官长降临……
  
  本片根据同名电子游戏改编。

Video
ID : 1
Format : AVC
Format/Info : Advanced Video Codec
Format profile : [email protected]
Format settings : CABAC / 5 Ref Frames
Format settings, CABAC : Yes
Format settings, Reference frames : 5 frames
Codec ID : V_MPEG4/ISO/AVC
Duration : 1 h 31 min
Bit rate : 12.8 Mb/s
Width : 1 920 pixels
Height : 800 pixels
Display aspect ratio : 2.40:1
Frame rate mode : Constant
Frame rate : 23.976 (24000/1001/189150) FPS
Color space : YUV
Chroma subsampling : 4:2:0
Bit depth : 8 bits
Scan type : Progressive
Bits/(Pixel*Frame) : 0.348
Stream size : 8.00 GiB (87%)
Writing library : x264 core 129 r2230 1cffe9f
Encoding settings : cabac=1 / ref=5 / deblock=1:-2:-2 / analyse=0x3:0x113 / me=umh / subme=11 / psy=1 / psy_rd=1.07:0.15 / mixed_ref=1 / me_range=56 / chroma_me=1 / trellis=2 / 8x8dct=1 / cqm=0 / deadzone=21,11 / fast_pskip=0 / chroma_qp_offset=-3 / threads=36 / lookahead_threads=6 / sliced_threads=0 / slices=4 / nr=0 / decimate=1 / interlaced=0 / bluray_compat=0 / constrained_intra=0 / bframes=8 / b_pyramid=2 / b_adapt=2 / b_bias=0 / direct=3 / weightb=1 / open_gop=0 / weightp=2 / keyint=240 / keyint_min=23 / scenecut=40 / intra_refresh=0 / rc_lookahead=240 / rc=2pass / mbtree=1 / bitrate=12800 / ratetol=1.0 / qcomp=0.60 / qpmin=0 / qpmax=69 / qpstep=4 / cplxblur=20.0 / qblur=0.5 / vbv_maxrate=50000 / vbv_bufsize=40000 / nal_hrd=none / ip_ratio=1.40 / aq=1:1.00
Language : English
Default : Yes
Forced : No
Color range : Limited
Color primaries : BT.709
Transfer characteristics : BT.709
Matrix coefficients : BT.709

Audio
ID : 2
Format : DTS
Format/Info : Digital Theater Systems
Codec ID : A_DTS
Duration : 1 h 31 min
Bit rate mode : Constant
Bit rate : 1 509 kb/s
Channel(s) : 6 channels
Channel layout : C L R Ls Rs LFE
Sampling rate : 48.0 kHz
Frame rate : 93.750 FPS (512 SPF)
Bit depth : 16 bits
Compression mode : Lossy
Stream size : 986 MiB (11%)
Language : English
Default : Yes
Forced : No

Text
ID : 3
Format : PGS
Muxing mode : zlib
Codec ID : S_HDMV/PGS
Codec ID/Info : Picture based subtitle format used on BDs/HD-DVDs
Title : SDH
Language : English
Default : Yes
Forced : No

Menu
00:00:00.000 : en:CHAPTER01
00:04:14.546 : en:CHAPTER02
00:07:44.464 : en:CHAPTER03
00:08:31.928 : en:CHAPTER04
00:12:39.968 : en:CHAPTER05
00:16:24.692 : en:CHAPTER06
00:20:13.212 : en:CHAPTER07
00:25:52.968 : en:CHAPTER08
00:28:22.200 : en:CHAPTER09
00:31:57.207 : en:CHAPTER10
00:36:17.842 : en:CHAPTER11
00:40:53.868 : en:CHAPTER12
00:44:32.461 : en:CHAPTER13
00:46:29.495 : en:CHAPTER14
00:49:45.441 : en:CHAPTER15
00:53:58.402 : en:CHAPTER16
00:57:03.086 : en:CHAPTER17
01:03:23.133 : en:CHAPTER18
01:08:56.257 : en:CHAPTER19
01:12:07.156 : en:CHAPTER20
01:18:15.357 : en:CHAPTER21
01:24:02.079 : en:CHAPTER22





1 个附件 售价 大小 下载 时间

Halo.4.Forward.Unto.Dawn.2012.1080p.BluRay.x264.DTS-FGT.zip 0 金币 92.11K 1393 次 2天前

#1楼
发帖时间:2020-11-22 09:44:51   |   回复数:1
亚瑟王
一派掌门
谢谢楼主分享
2天前 #2楼
游客组