travismk
一代宗师

[2007] [欧美] [剧情] [WEB-1080P] 落山 Coming.Down.the.Mountain.2007.1080p.AMZN.WEBRip.DDP2.0.x264-NOGRP 4.79GB

-->

帖子完整标题:落山 Coming.Down.the.Mountain.2007.1080p.AMZN.WEBRip.DDP2.0.x264-NOGRP 4.79GB



◎译  名 落山
◎片  名 Coming Down the Mountain
◎年  代 2007
◎产  地 英国
◎类  别 剧情
◎语  言 英语
◎上映日期 2007-09-02
◎IMDb评分 7.6/10 from 471 users
◎IMDb链接 https://www.imdb.com/title/tt0974544/
◎豆瓣评分 8.0/10 from 978 users
◎豆瓣链接 https://movie.douban.com/subject/2295101/
◎片  长 80分钟
◎导  演 朱莉·安妮·罗宾逊 Julie Anne Robinson
◎编  剧 马克·哈登 Mark Haddon
◎主  演 尼古拉斯·霍尔特 Nicholas Hoult
      Sam Gaukroger
      爱默·肯尼 Emer Kenny
      霍华德·克罗斯利 Howard Crossley
      Christopher Hanvey
      Jack Bagley
      威尔·豪斯 Will Howes
      Natalie Wilson

◎标  签 Nicholas_Hoult | 英国 | NicholasHoult | 英剧 | 英国电影 | BBC | 2007 | 落山

◎简  介

  大卫(尼古拉斯·霍尔特 Nicholas Hoult 饰)和本(托米·杰斯普 Tommy Jessop 饰)本该是情同手足的兄弟,可是本不幸患上了唐氏综合症,父亲约翰(内尔·德贞 Neil Dudgeon 饰)和母亲谢拉(Julia Ford 饰)将全部的时间和精力都放在了本身上,可以想见,在他们离世后,这样的重担将落在身为哥哥的大卫肩上。
  
  从小到大,大卫都是家中被忽视的那一个,为了照顾本,一家人东奔西走,居无定所。颠沛流离的生活让大卫离开了朋友,离开了恋人,生活在孤独之中的他将一切的过错怪在了弟弟的身上。某日,大卫连哄带骗领着本上山露营,正当本站在山顶上,沉浸于壮阔的景色之中时,大卫做出了一个令他后悔终生的决定。

Video
ID : 1
Format : AVC
Format/Info : Advanced Video Codec
Format profile : [email protected]
Format settings : CABAC / 4 Ref Frames
Format settings, CABAC : Yes
Format settings, Reference frames : 4 frames
Codec ID : V_MPEG4/ISO/AVC
Duration : 1 h 20 min
Bit rate mode : Constant
Bit rate : 8 344 kb/s
Nominal bit rate : 10 000 kb/s
Width : 1 920 pixels
Height : 1 080 pixels
Display aspect ratio : 16:9
Frame rate mode : Constant
Frame rate : 25.000 FPS
Color space : YUV
Chroma subsampling : 4:2:0
Bit depth : 8 bits
Scan type : Progressive
Bits/(Pixel*Frame) : 0.161
Stream size : 4.66 GiB (97%)
Default : Yes
Forced : No
Color range : Limited
Color primaries : BT.709
Transfer characteristics : BT.709
Matrix coefficients : BT.709

Audio
ID : 2
Format : E-AC-3
Format/Info : Enhanced AC-3
Commercial name : Dolby Digital Plus
Codec ID : A_EAC3
Duration : 1 h 20 min
Bit rate mode : Constant
Bit rate : 224 kb/s
Channel(s) : 2 channels
Channel layout : L R
Sampling rate : 48.0 kHz
Frame rate : 31.250 FPS (1536 SPF)
Compression mode : Lossy
Stream size : 128 MiB (3%)
Title : English
Language : English
Service kind : Complete Main
Default : Yes
Forced : No

Text
ID : 3
Format : UTF-8
Codec ID : S_TEXT/UTF8
Codec ID/Info : UTF-8 Plain Text
Duration : 1 h 18 min
Bit rate : 60 b/s
Count of elements : 1243
Stream size : 35.2 KiB (0%)
Title : English [SDH]
Language : English
Default : No
Forced : No





1 个附件 售价 大小 下载 时间

Coming.Down.the.Mountain.2007.1080p.AMZN.WEBRip.DDP2.0.x264-NOGRP.zip 0 金币 48.61K 217 次 2天前

#1楼
发帖时间:2020-11-22 09:46:49   |   回复数:0
游客组